Ссылка на приватное зеркало нашего сайта всего за 1$. Внимание количество ограничено!!!

2 сезон

iTunes

1 сезон

1

2 сезон

2 сезон

iTunes

1 сезон

RePack

30

Ultimate

ВАЖНО

ИГРА 18+

pack

RePack

MK11
pack

Забери бонус

RePack

jed

!!Акция!!

Alien_Rage

RePack

fifa19

RePack

Assassins Creed: Odyssey

RePack

NEED FOR SPEED™ PAYBACK

4 сезон

9 сезон

Бесстыжие 9 сезон

Все сериалы

все сериалы на PB.wtf

RePack

FAR CRY 5
  

Ассимиляция / Assimilate (Джон Марловски) [2019, Ужасы, фантастика, триллер, WEB-DL 720p] MVO [HDRezka Studio] pb.wtf

Ассимиляция через торрент pb.wtf

Раздают: 2 [ 0 KB/s ]
Размер: 2.36 GB | Добавлен: 1 год 5 мес. назад | Торрент скачан:166 раз
Скачать  

17-06-2019 20:17 Ассимиляция Скачать торрент  

Ассимиляция / Assimilate
Год выпуска: 2019
Страна: США
Жанр: Ужасы, фантастика, триллер
Продолжительность: 01:33:36
Перевод: Профессиональный (многоголосый) | HDRezka Studio
Субтитры: Русские (форс.), английские

Режиссер: Джон Марловски

rating

В ролях: Джоэл Кортни, Кэлам Уорси, Энди Мэтичак, Кэтрин МакНамара, Кэм Жиганде, Мэйсон МакНалти, Терри Паркс, Вито Вискузо, Дженнифер Пирс Матус, Кевин Ремингтон

Описание: Томящиеся от скуки приятели Зак и Рэнди однажды решают заняться созданием документального веб-сериала о жизни своего небольшого городка. Однако размеренный быт местного населения настолько однообразен, что друзья начинают сомневаться в какой-либо ценности своего нового проекта. Тогда они и представить себе не могли, в центре каких загадочных событий окажутся уже совсем скоро. А началось всё с двух на первый взгляд никак не связанных межу собой вещей - появления необычных насекомых и странного поведения некоторых горожан, в одночасье переставших испытывать какие-либо эмоции.

Качество: WEB-DL 720p
Формат: MKV

Видео: MPEG-4 AVC, 2771 Kбит/с, 1280x688, 23.976 кадр/с
Аудио#1: Русский: AC3, 2 ch, 192 Кбит/с - HDRezka Studio
Аудио#2: Английский: Е-AC3, 6 ch, 640 Кбит/с - Оригинал
скриншот  скриншот  скриншот  скриншот  

Источник: Assimilate.2019.720p.AMZN.WEB-DL.DDP5.1.x264-NTG
General
Unique ID : 180044544563199988340366821468615888336 (0x8773516677BAA7A6AA10E5DA86264DD0)
Complete name : Assimilate.2019.WEB-DL.720p.mkv
Format : Matroska
Format version : Version 4
File size : 2.36 GiB
Duration : 1 h 33 min
Overall bit rate : 3 605 kb/s
Encoded date : UTC 2019-06-17 19:00:21
Writing application : mkvmerge v7.1.0 ('Good Love') 64bit built on Jul 27 2014 13:06:55
Writing library : libebml v1.3.0 + libmatroska v1.4.1

Video
ID : 1
Format : AVC
Format/Info : Advanced Video Codec
Format profile : High@L3.1
Format settings : CABAC / 4 Ref Frames
Format settings, CABAC : Yes
Format settings, Reference fra : 4 frames
Codec ID : V_MPEG4/ISO/AVC
Duration : 1 h 33 min
Bit rate mode : Constant
Bit rate : 2 771 kb/s
Nominal bit rate : 6 000 kb/s
Width : 1 280 pixels
Height : 688 pixels
Display aspect ratio : 1.85:1
Frame rate mode : Constant
Frame rate : 23.976 (24000/1001) FPS
Color space : YUV
Chroma subsampling : 4:2:0
Bit depth : 8 bits
Scan type : Progressive
Bits/(Pixel*Frame) : 0.131
Stream size : 1.81 GiB (77%)
Language : English
Default : Yes
Forced : No
Color range : Limited
Color primaries : BT.709
Transfer characteristics : BT.709
Matrix coefficients : BT.709

Audio #1
ID : 2
Format : AC-3
Format/Info : Audio Coding 3
Commercial name : Dolby Digital
Codec ID : A_AC3
Duration : 1 h 33 min
Bit rate mode : Constant
Bit rate : 192 kb/s
Channel(s) : 2 channels
Channel layout : L R
Sampling rate : 48.0 kHz
Frame rate : 31.250 FPS (1536 SPF)
Bit depth : 16 bits
Compression mode : Lossy
Stream size : 129 MiB (5%)
Title : MVO | HDRezka Studio
Language : Russian
Service kind : Complete Main
Default : Yes
Forced : No

Audio #2
ID : 3
Format : E-AC-3
Format/Info : Enhanced AC-3
Commercial name : Dolby Digital Plus
Codec ID : A_EAC3
Duration : 1 h 33 min
Bit rate mode : Constant
Bit rate : 640 kb/s
Channel(s) : 6 channels
Channel layout : L R C LFE Ls Rs
Sampling rate : 48.0 kHz
Frame rate : 31.250 FPS (1536 SPF)
Compression mode : Lossy
Stream size : 428 MiB (18%)
Language : English
Service kind : Complete Main
Default : No
Forced : No

Text #1
ID : 4
Format : UTF-8
Codec ID : S_TEXT/UTF8
Codec ID/Info : UTF-8 Plain Text
Duration : 1 h 25 min
Bit rate : 2 b/s
Count of elements : 26
Stream size : 1.38 KiB (0%)
Title : forced
Language : Russian
Default : Yes
Forced : No

Text #2
ID : 5
Format : UTF-8
Codec ID : S_TEXT/UTF8
Codec ID/Info : UTF-8 Plain Text
Duration : 1 h 27 min
Bit rate : 33 b/s
Count of elements : 809
Stream size : 21.3 KiB (0%)
Language : English
Default : No
Forced : No

Text #3
ID : 6
Format : UTF-8
Codec ID : S_TEXT/UTF8
Codec ID/Info : UTF-8 Plain Text
Duration : 1 h 33 min
Bit rate : 35 b/s
Count of elements : 960
Stream size : 24.3 KiB (0%)
Title : SDH
Language : English
Default : No
Forced : No

pb.wtf



Скачать Ассимиляция через торрент https://c.radikal.ru/c23/1906/dc/f2ad5bbb06aa.jpg Скачать фильм Ассимиляция через торрент бесплантно в хорошем качестве Описание: Томящиеся от скуки приятели Зак и Рэнди однажды решают заняться созданием документального веб-сериала о жизни своего небольшого ... 10 10 11
Торрент: Зарегистрирован [2019-06-17 20:17] · скачан: 166 раз
Статус: T временная
Размер: 2.36 GB
Как cкачать? Как скачать Ассимиляция через торрент | qTorrent

% Раздел Тема Автор DL S | L
T Фильмы 2019-2020 [DVDrip, WEB-DLRip, HDrip] (DUB, MVO) [ 1.43 GB ] Ассимиляция / Assimilate [2019 BDRip] MVO [HDRezka Studio] bober100 Скачать
1 | 0
Фильмы (Blu-ray, BD-Remux, HDDVD) [ 20.19 GB ] Ассимиляция / Assimilate [2019 BDRemux 1080p] MVO [HDRezka Studio] AVO [Есарев]- ExKinoRay Enigma2010 Скачать
2 | 1
Фильмы 2019-2020 [DVDrip, WEB-DLRip, HDrip] (DUB, MVO) [ 1.89 GB ] Ассимиляция / Assimilate [2019 BDRip-AVC] MVO [HDRezka Studio] AVO [Есарев]- ExKinoRay Enigma2010 Скачать
3 | 0
T Фильмы (WEB-DL 720p, 1080p) [ 4.39 GB ] Ассимиляция / Assimilate [2019 WEB-DL 1080p] MVO [HDRezka Studio] bober100 Скачать
1 | 0

28-11-2019 20:33  

Отключить всю рекламу на сайте

    Дорогой пользователь! Огромная просьба, поблагодарите релизера, оцените раздачу и оставьте свои комментарий, если Вы скачали Ассимиляция через торрент бесплатно! Внесите свою лепту в развитие PiratBit!
    Комментировать посты могут только пользователи прошедшие не сложную регистрацию
    Показать сообщения:    

    Ассимиляция через торрент
    Скачать бесплатно Ассимиляция
    Ассимиляция скачать торрент
    Ассимиляция смотреть онлайн
    Cкачать фильм Ассимиляция бесплатно
    Ассимиляция скачать торрент в хорошем качестве
    Ассимиляция смотреть онлайн бесплатно в хорошем качестве


    Вы не можете начинать темы
    Вы не можете отвечать на сообщения
    Вы не можете редактировать свои сообщения
    Вы не можете удалять свои сообщения
    Вы не можете голосовать в опросах
    Вы не можете прикреплять файлы к сообщениям
    Вы можете скачивать файлы