Лицензия

MVO

1

1 сезон

Лицензия

Лицензия

13

MVO

1 сезон

Deluxe Edition

pack

Рекомендуем

30

Repack

ВАЖНО

ВАЖНО

Ghostwire

RePack

jed

RePack

fifa19

RePack

RDR2

RePack

NEED FOR SPEED™ PAYBACK

RePack

Кинопоиск HD

 Острые козырьки 6 сезон

6 сезон

FAR CRY 6

RePack

Лицензия

MVO

1

1 сезон

1 сезон

Лицензия

  

Район №9 / District 9 (Нил Бломкамп) [2009, Боевик, драма, фантастика, триллер, BDRip 1080p] DUB [Лицензия] + 3xAVO

Район №9 через торрент pb.wtf

Размер: 8.87 GB | Добавлен: 3 года 3 мес. назад | Торрент скачан:135 раз
Смотреть онлайн Район №9 | Скачать   

18-06-2019 02:25 Район №9 Скачать торрент  

Район №9 / District 9««Им здесь не место»»

Год выпуска: 2009
Страна: США, ЮАР, Новая Зеландия, Канада
Жанр: Боевик, драма, фантастика, триллер
Продолжительность: 01:52:15
Перевод: Дублированный, авторский
Субтитры: Русские, английские
Режиссер: Нил Бломкамп
В ролях:

Шарлто Копли (Wikus Van De Merwe), Джейсон Коуп (Grey Bradnam - UKNR Chief Correspondent / Christopher Johnson), Натали Болтт (Sarah Livingstone - Sociologist), Сильвен Страйк (Dr Katrina McKenzie), Элизабет Мкандави (Interviewee), Джон Самнер (Les Feldman - MIL Engineer), Уильям Аллен Янг (Dirk Michaels), Грег Мелвилл-Смит (Interviewer), Ник Блейк (Francois Moraneu - CIV Engineer Team), Морена Буса Сесатса (Interviewee), Темба Нкоси (Interviewee), Мзвандил Нкоба (Interviewee)
Описание:
Более 20 лет назад инопланетяне установили первый контакт с Землей. Люди были готовы ко всему - от враждебного вторжения до невероятного технологического прорыва. Ни того, ни другого не произошло. Пришельцы оказались беженцами со своей собственной планеты, и пока мировое сообщество решало, что с ними делать дальше, для них был организован временный лагерь в южноафриканском Районе N9.
Рейтинг:

MPAA: R - Лицам до 17 лет обязательно присутствие взрослого
Качество: BDRip 1080p
Формат: MKV
Видео: MPEG-4 AVC, 9137 Кбит/с, 1920x1040, 23.976 кадр/с
Аудио №1: русский / AC3 / 5.1 / 48 kHz / 448 kbps / || Дублированный
Аудио №2: русский / AC3 / 5.1 / 48 kHz / 448 kbps / || Гаврилов
Аудио №3: русский / AC3 / 5.1 / 48 kHz / 448 kbps / || Сербин
Аудио №4: русский / AC3 / 2 / 48 kHz / 192 kbps / || Горчаков
Аудио №5: английский / AC3 / 5.1 / 48 kHz / 448 kbps /

2010 - Оскар

Номинации

Лучший фильм
Лучший адаптированный сценарий
Лучший монтаж
Лучшие визуальные эффекты

2010 - Золотой глобус

Номинация

Лучший сценарий

2010 - Британская академия

Номинации

Лучший режиссер (Нил Бломкамп)
Лучший адаптированный сценарий
Лучшая работа оператора
Лучший звук
Лучший монтаж
Лучшие визуальные эффекты
Лучшая работа художника-постановщика

2010 - Жорж

Номинация

Лучший зарубежный экшн

2010 - Премия канала MTV

Номинация

Лучший испуг (Шарлто Копли)
F:\_Video2\_my\Rajon.9\Rajon.nomer.9.2009.x264.BDRip.1080p.mkv
General
Complete name : F:\_Video2\_my\Rajon.9\Rajon.nomer.9.2009.x264.BDRip.1080p.mkv
Format : Matroska
File size : 8.87 GiB
Duration : 1h 52mn
Overall bit rate : 11.3 Mbps
Encoded date : UTC 2011-04-02 17:20:31
Writing application : mkvmerge v4.6.0 ('Still Crazy After All These Years') Mar 10 2011 02:50:32
Writing library : libebml v1.2.0 + libmatroska v1.1.0
Video #1
ID : 1
Format : AVC
Format/Info : Advanced Video Codec
Format profile : [email protected]
Format settings, CABAC : Yes
Format settings, ReFrames : 6 frames
Muxing mode : Container [email protected]
Codec ID : V_MPEG4/ISO/AVC
Duration : 1h 52mn
Bit rate : 9 085 Kbps
Nominal bit rate : 9 137 Kbps
Width : 1 920 pixels
Height : 1 040 pixels
Display aspect ratio : 16:9
Frame rate : 23.976 fps
Resolution : 24 bits
Colorimetry : 4:2:0
Scan type : Progressive
Bits/(Pixel*Frame) : 0.190
Stream size : 7.13 GiB (80%)
Title : video
Writing library : x264 core 114 r1913 5fd3dce
Encoding settings : cabac=1 / ref=6 / deblock=1:-1:-1 / analyse=0x3:0x113 / me=umh / subme=9 / psy=1 / psy_rd=0.80:0.00 / mixed_ref=1 / me_range=32 / chroma_me=1 / trellis=2 / 8x8dct=1 / cqm=0 / deadzone=21,11 / fast_pskip=1 / chroma_qp_offset=-2 / threads=6 / sliced_threads=0 / nr=0 / decimate=1 / interlaced=0 / constrained_intra=0 / bframes=9 / b_pyramid=2 / b_adapt=2 / b_bias=0 / direct=3 / weightb=1 / open_gop=0 / weightp=1 / keyint=250 / keyint_min=25 / scenecut=40 / intra_refresh=0 / rc_lookahead=40 / rc=2pass / mbtree=1 / bitrate=9137 / ratetol=1.0 / qcomp=0.60 / qpmin=10 / qpmax=51 / qpstep=4 / cplxblur=20.0 / qblur=0.5 / vbv_maxrate=40000 / vbv_bufsize=40000 / nal_hrd=vbr / ip_ratio=1.40 / aq=1:1.00
Language : English
colour_primaries : BT.709-5, BT.1361, IEC 61966-2-4, SMPTE RP177
transfer_characteristics : BT.709-5, BT.1361
matrix_coefficients : BT.709-5, BT.1361, IEC 61966-2-4 709, SMPTE RP177
Audio #2
ID : 2
Format : AC-3
Format/Info : Audio Coding 3
Codec ID : A_AC3
Duration : 1h 52mn
Bit rate mode : Constant
Bit rate : 448 Kbps
Channel(s) : 6 channels
Channel positions : Front: L C R, Surround: L R, LFE
Sampling rate : 48.0 KHz
Stream size : 361 MiB (4%)
Title : dub
Language : Russian
Audio #3
ID : 3
Format : AC-3
Format/Info : Audio Coding 3
Codec ID : A_AC3
Duration : 1h 52mn
Bit rate mode : Constant
Bit rate : 448 Kbps
Channel(s) : 6 channels
Channel positions : Front: L C R, Surround: L R, LFE
Sampling rate : 48.0 KHz
Stream size : 361 MiB (4%)
Title : avo_gavrilov
Language : Russian
Audio #4
ID : 4
Format : AC-3
Format/Info : Audio Coding 3
Codec ID : A_AC3
Duration : 1h 52mn
Bit rate mode : Constant
Bit rate : 448 Kbps
Channel(s) : 6 channels
Channel positions : Front: L C R, Surround: L R, LFE
Sampling rate : 48.0 KHz
Stream size : 361 MiB (4%)
Title : avo_serbin
Language : Russian
Audio #5
ID : 5
Format : AC-3
Format/Info : Audio Coding 3
Codec ID : A_AC3
Duration : 1h 52mn
Bit rate mode : Constant
Bit rate : 192 Kbps
Channel(s) : 2 channels
Channel positions : L R
Sampling rate : 48.0 KHz
Video delay : 10ms
Stream size : 155 MiB (2%)
Title : avo_gorchakov
Language : Russian
Audio #6
ID : 6
Format : AC-3
Format/Info : Audio Coding 3
Codec ID : A_AC3
Duration : 1h 52mn
Bit rate mode : Constant
Bit rate : 448 Kbps
Channel(s) : 6 channels
Channel positions : Front: L C R, Surround: L R, LFE
Sampling rate : 48.0 KHz
Stream size : 361 MiB (4%)
Title : english
Language : English
Text #7
ID : 7
Format : UTF-8
Codec ID : S_TEXT/UTF8
Codec ID/Info : UTF-8 Plain Text
Title : russian
Language : Russian
Text #8
ID : 8
Format : UTF-8
Codec ID : S_TEXT/UTF8
Codec ID/Info : UTF-8 Plain Text
Title : english
Language : English



Скачать Район №9 через торрент https://d.radikal.ru/d28/1906/c4/1a7f2179c055.png Скачать, смотреть онлайн Район №9 бесплантно в хорошем качестве Описание: Более 20 лет назад инопланетяне установили первый контакт с Землей. Люди были готовы ко всему - от враждебного вторжения до ... 8.2 10 6
Торрент: Зарегистрирован [2019-06-18 02:25] · скачан: 135 раз
Статус: √ проверено
Размер: 8.87 GB
Как cкачать? Как скачать Район №9 через торрент | UTorrent

% Раздел Тема Автор DL S | L
Ultra HD (UHD: 2K, 4K, 8K) [ 43.89 GB ] Район №9 / District 9 | Лицензия | 2160p bober100 Скачать
1 | 0
Ultra HD (UHD: 2K, 4K, 8K) [ 23.66 GB ] Район №9 / District 9 | Лицензия | 2160p sheker187 Скачать
1 | 0

28-11-2019 20:33  

Отключить вcю реклaмy на сайте

    Дорогой пользователь! Огромная просьба, поблагодарите релизера, оцените раздачу и оставьте свои комментарий, если Вы скачали Район №9 через торрент бесплатно!!
    Комментировать посты могут только пользователи прошедшие не сложную регистрацию
    Показать сообщения:    


    Район №9 через торрент
    Скачать бесплатно Район №9
    Район №9 скачать торрент
    Район №9 смотреть онлайн
    Cкачать фильм Район №9 бесплатно
    Район №9 скачать торрент в хорошем качестве
    Район №9 смотреть онлайн бесплатно в хорошем качестве
    Вы не можете начинать темы
    Вы не можете отвечать на сообщения
    Вы не можете редактировать свои сообщения
    Вы не можете удалять свои сообщения
    Вы не можете голосовать в опросах
    Вы не можете прикреплять файлы к сообщениям
    Вы можете скачивать файлы