Ссылка на приватное зеркало нашего сайта всего за 1$. Внимание количество ограничено!!!

2 сезон

iTunes

1 сезон

1

2 сезон

2 сезон

iTunes

1 сезон

RePack

30

Ultimate

ВАЖНО

ИГРА 18+

pack

RePack

MK11
pack

Забери бонус

RePack

jed

!!Акция!!

Alien_Rage

RePack

fifa19

RePack

Assassins Creed: Odyssey

RePack

NEED FOR SPEED™ PAYBACK

4 сезон

9 сезон

Бесстыжие 9 сезон

Все сериалы

все сериалы на PB.wtf

RePack

FAR CRY 5
  

Странный ангел / Strange Angel / Сезон: 2 / Серии: 1-7 из 7 (Бен Уитли, Марк Хейман) [2019, драма, детектив, WEB-DL 720p] MVO [LostFilm] pb.wtf

Странный ангел через торрент pb.wtf

Размер: 7.12 GB | Добавлен: 1 год 4 мес. назад | Торрент скачан:4 раза
Скачать  

18-06-2019 05:37 Странный ангел Скачать торрент  

Странный ангел / Strange Angel Год выпуска: 2019
Страна: США
Жанр: драма, детектив
Продолжительность: ~00:50:00 серия
Перевод: Профессиональный многоголосый | LostFilm
Субтитры: русские, английские

Режиссер: Бен Уитли, Марк Хейман

rating


В ролях: Джек Рейнор, Белла Хиткот, Питер Марк Кендалл, Грег Уайз, Руперт Френд, Раде Шербеджия, Майкл Гэстон, Вероника Осорио, Кай Чен

Описание: Джек Парсонс — знаменитый инженер, химик и оккультист. В 1930-х молодой человек, с детства увлекавшийся реактивным движением, начал работать уборщиком на химическом заводе в Лос-Анджелесе. Вскоре благодаря врожденному таланту и амбициям Парсонс смог положить начало американскому ракетостроению и стал одним из ключевых основателей Лаборатории реактивного движения. Однако интересы Парсона не ограничивались химией. В начале 1940-х, после кратковременного периода увлечения марксизмом, Парсонс заинтересовался учениями английского оккультиста Алистера Кроули и вместе с женой Хелен присоединился к калифорнийскому отделению ордена восточных тамплиеров...

Качество: WEB-DL 720p
Формат: MKV

Видео: 1280x720 (16:9), 24.000 fps, MPEG-4 AVC ~2 400 kbps avg
Аудио#1: 48.0 kHz, AC3 Dolby Digital, 2/0 (L,R) ch, ~192 kbps | RUS / MVO / LostFilm
Аудио#2: 48.0 kHz, Enhanced Audio Coding 3, 3/2 (L,C,R,l,r) + LFE ch, ~640 kbps | ENG
скриншот  скриншот  скриншот  

Общее
Уникальный идентификатор : 316194460400715951277318404673588186906 (0xEDE0D6841F0A45E7271EFEE966A04F1A)
Полное имя : E:\_Сериалы\_Сериалы\Странный ангел\Strange.Angel.S02.WEB-DL.720p.LostFilm\Strange.Angel.S02E01.WEB-DL.720p.LostFilm.mkv
Формат : Matroska
Версия формата : Version 4
Размер файла : 1,11 Гбайт
Продолжительность : 49 м. 20 с.
Общий поток : 3227 Кбит/сек
Дата кодирования : UTC 2019-06-15 19:23:31
Программа кодирования : mkvmerge v34.0.0 ('Sight and Seen') 64-bit
Библиотека кодирования : libebml v1.3.7 + libmatroska v1.5.0

Видео
Идентификатор : 1
Формат : AVC
Формат/Информация : Advanced Video Codec
Профиль формата : High@L3.1
Настройки формата : CABAC / 4 Ref Frames
Параметр CABAC формата : Да
Параметр RefFrames формата : 4 кадра
Идентификатор кодека : V_MPEG4/ISO/AVC
Продолжительность : 49 м. 20 с.
Вид битрейта : Постоянный
Битрейт : 2392 Кбит/сек
Номинальный битрейт : 6000 Кбит/сек
Ширина : 1280 пикселей
Высота : 720 пикселей
Соотношение сторон : 16:9
Режим частоты кадров : Постоянный
Частота кадров : 24,000 кадра/сек
Цветовое пространство : YUV
Субдискретизация насыщенности : 4:2:0
Битовая глубина : 8 бит
Тип развёртки : Прогрессивная
Бит/(Пиксели*Кадры) : 0.108
Размер потока : 844 Мбайт (74%)
Default : Да
Forced : Нет
Цветовой диапазон : Limited
Основные цвета : BT.709
Характеристики трансфера : BT.709
Коэффициенты матрицы : BT.709

Аудио #1
Идентификатор : 2
Формат : AC-3
Формат/Информация : Audio Coding 3
Коммерческое название : Dolby Digital
Идентификатор кодека : A_AC3
Продолжительность : 49 м. 19 с.
Вид битрейта : Постоянный
Битрейт : 192 Кбит/сек
Каналы : 2 канала
Channel layout : L R
Частота : 48,0 КГц
Частота кадров : 31,250 кадров/сек (1536 SPF)
Битовая глубина : 16 бит
Метод сжатия : С потерями
Размер потока : 67,7 Мбайт (6%)
Язык : Russian
ServiceKind/String : Complete Main
Default : Нет
Forced : Нет

Аудио #2
Идентификатор : 3
Формат : E-AC-3
Формат/Информация : Enhanced AC-3
Коммерческое название : Dolby Digital Plus
Идентификатор кодека : A_EAC3
Продолжительность : 49 м. 20 с.
Вид битрейта : Постоянный
Битрейт : 640 Кбит/сек
Каналы : 6 каналов
Channel layout : L R C LFE Ls Rs
Частота : 48,0 КГц
Частота кадров : 31,250 кадров/сек (1536 SPF)
Метод сжатия : С потерями
Размер потока : 226 Мбайт (20%)
Язык : English
ServiceKind/String : Complete Main
Default : Да
Forced : Нет

Текст #1
Идентификатор : 4
Формат : UTF-8
Идентификатор кодека : S_TEXT/UTF8
Идентификатор кодека/Информация : UTF-8 Plain Text
Продолжительность : 47 м. 20 с.
Битрейт : 109 бит/сек
ElementCount : 772
Размер потока : 37,8 Кбайт (0%)
Язык : Russian
Default : Нет
Forced : Нет

Текст #2
Идентификатор : 5
Формат : UTF-8
Идентификатор кодека : S_TEXT/UTF8
Идентификатор кодека/Информация : UTF-8 Plain Text
Продолжительность : 47 м. 16 с.
Битрейт : 79 бит/сек
ElementCount : 894
Размер потока : 27,4 Кбайт (0%)
Заголовок : SDH
Язык : English
Default : Нет
Forced : Нет

Раздача ведётся путём добавления новых серий, при каждом добавлении создаётся новый торрент. Чтобы начать докачку новой серии, пользователям необходимо сделать следующее:

- Остановить скачивание.
- Удалить старый торрент у себя из клиента (старые серии удалять не надо).
- Скачать новый торрент и запустить его у себя в клиенте вместо старого, при этом указать клиенту путь в старую папку куда и должно происходить скачивание новых серий.

Ваш клиент при этом должен произвести хеширование (проверку) старой папки (если не производит сам - помогите ему сделать это), и будет докачивать только те серии которых у вас ещё нет. Старые серии при этом не удаляются, а продолжают раздаваться!
Если вы уже удалили старые серии, то предотвратить повторную закачку старых серий можно, отжав галочку в соответствующих местах при запуске нового торрента. По возможности, желательно не удалять старые серии как можно дольше, чтобы релизер не столько продолжал раздавать старые серии, а смог сконцентрироваться на новых.
pb.wtf



Скачать Странный ангел через торрент https://i5.imageban.ru/out/2019/07/10/e274ad6f7d3b82b3b0fa4529cc487e9e.png Скачать фильм Странный ангел через торрент бесплантно в хорошем качестве Описание: Джек Парсонс — знаменитый инженер, химик и оккультист. В 1930-х молодой человек, с детства увлекавшийся реактивным движением, ... 8 10 3
Торрент: Зарегистрирован [2019-07-28 13:17] · скачан: 4 раз
Статус: √ проверено
Размер: 7.12 GB
Как cкачать? Как скачать Странный ангел через торрент | qTorrent

% Раздел Тема Автор DL S | L
Зарубежные сериалы [ 4.75 GB ] Странный ангел / Strange Angel / Сезон: 2 / Серии: 1-7 из 7 [2019 WEB-DLRip] MVO [LostFilm] bober100 Скачать
1 | 0
Зарубежные сериалы [ 13.44 GB ] Странный ангел / Strange Angel / Сезон: 2 / Серии: 1-7 из 7 [2019 WEBRip 1080p] [MVO] killermax2013 Скачать
1 | 0
Зарубежные сериалы [ 6.75 GB ] Странный ангел / Strange Angel / Сезон: 2 / Серии: 1-7 из 7 [2019 WEB-DL 720p] MVO [AlexFilm] bober100 Скачать
1 | 0

28-11-2019 20:33  

Отключить всю рекламу на сайте

    Дорогой пользователь! Огромная просьба, поблагодарите релизера, оцените раздачу и оставьте свои комментарий, если Вы скачали Странный ангел через торрент бесплатно! Внесите свою лепту в развитие PiratBit!
    Комментировать посты могут только пользователи прошедшие не сложную регистрацию
    Показать сообщения:    

    Странный ангел через торрент
    Скачать бесплатно Странный ангел
    Странный ангел скачать торрент
    Странный ангел смотреть онлайн
    Cкачать фильм Странный ангел бесплатно
    Странный ангел скачать торрент в хорошем качестве
    Странный ангел смотреть онлайн бесплатно в хорошем качестве


    Вы не можете начинать темы
    Вы не можете отвечать на сообщения
    Вы не можете редактировать свои сообщения
    Вы не можете удалять свои сообщения
    Вы не можете голосовать в опросах
    Вы не можете прикреплять файлы к сообщениям
    Вы можете скачивать файлы