новый адрес пиратбит piratbit
Мега распродажа FORZA HORIZON 4 ULTIMATE+ВСЕ DLC+ОНЛАЙН всего за 499р. 349 руб. (супер цена). Внимание количество ограничено!!!

iTunes

1+1

iTunes

мы

iTunes

1

iTunes

Чернобыль

iTunes

Ральф против интернета

Лицензия

ПШазам

Лицензия

Игра престолов

Лицензия

30
pack

ВАЖНО

!!Акция!!

Alien_RageХит недели

RePack

Resident Evil 21

ИГРА 18+

pack

RePack

Metro:Exodus

!!Акция!!

Alien_Rage

RePack

fifa19

RePack

Assassins Creed: Odyssey

RePack

NEED FOR SPEED™ PAYBACK

3 сезон

9 сезон

Бесстыжие 9 сезон

Все сериалы

все сериалы на PB.wtf

RePack

FAR CRY 5
Ребята, катастрофически не хватает 1900р. для оплаты серверов за Октябрь (всвязи с блокировками трафик упал в 3 раза), 1-2р., выручайте.
  

Город на холме / City on a Hill / Сезон 1 / Серии 1- из 10 (Эдвард Бьянчи) [2019, триллер, драма, криминал, WEB-DLRip] MVO [Amedia] pb.wtf

Город на холме через торрент pb.wtf

Раздают: 2 [ 0 KB/s ]
Размер: 891 MB | Добавлен: 4 мес. 26 д. назад | Торрент скачан:32 раза
Скачать  

18-06-2019 06:16 Город на холме Скачать торрент  

Город на холме / City on a Hill Год выпуска: 2019
Страна: США
Жанр: триллер, драма, криминал
Продолжительность: ~ 00:60:00
Перевод: Профессиональный (многоголосый закадровый) | Novamedia по заказу Amedia
Субтитры: отсутствуют

Режиссер: Эдвард Бьянчи, Майкл Куэста, Гэвин О’Коннор

В ролях:

Кевин Бейкон, Элдис Ходж, Джонатан Такер, Марк О’Брайэн, Лорен Е. Бэнкс, Аманда Клэйтон, Джилл Хеннесси, Блейк Баумгартнер, Джир Ши, Нора Мерфи и т.д.

Описание:

Действие разворачивается в начале 1990-х в Бостоне, погрязшем в преступности, коррупции и расизме. Однажды в городе появляется новый чернокожий окружной прокурор из Бруклина, Декорси Уорд, который намерен во что бы то ни стало изменить существующие порядки. Герой вынужден заключить сомнительный союз с коррумпированным, но уважаемым ветераном ФБР Джеки Роудсом. Уорд надеется с его помощью выйти на след опасной банды налётчиков на инкассаторов. Вскоре их сотрудничество навсегда меняет систему уголовного правосудия в Бостоне.




Качество: WEB-DLRip
Формат: AVI

Видео: 720x400 at 23.976 fps, XviD, ~1500 kbps avg
Аудио#1: Russian: 48 kHz, AC3, 2/0 (L,R) ch, ~192 kbps avg |Многоголосый закадровый, Novamedia по заказу Amedia|
Аудио#2: English: 48 kHz, AC3, 2/0 (L,R) ch, ~192 kbps avg
скриншот  скриншот  скриншот  скриншот  

Общее
Полное имя : D:\City on a Hill (Season 01)\01. City on a Hill .s01. 2019.Novamedia.avi
Формат : AVI
Формат/Информация : Audio Video Interleave
Размер файла : 891 Мбайт
Продолжительность : 1 ч. 2 м.
Общий поток : 1988 Кбит/сек
Название фильма : G
Программа кодирования : V
Формат оригинала/Имя : K

Видео
Идентификатор : 0
Формат : MPEG-4 Visual
Профиль формата : Advanced Simple@L5
Параметр BVOP формата : 2
Параметр QPel формата : Нет
Параметр GMC формата : Без точки перехода
Параметр матрицы формата : Default (H.263)
Идентификатор кодека : XVID
Идентификатор кодека/Подсказка : XviD
Продолжительность : 1 ч. 2 м.
Продолжительность оригинала : 32 м. 19 с.
Битрейт : 1580 Кбит/сек
Ширина : 720 пикселей
Высота : 400 пикселей
Соотношение сторон : 16:9
Частота кадров : 23,976 (23976/1000) кадра/сек
Цветовое пространство : YUV
Субдискретизация насыщенности : 4:2:0
Битовая глубина : 8 бит
Тип развёртки : Прогрессивная
Метод сжатия : С потерями
Бит/(Пиксели*Кадры) : 0.229
Размер потока : 365 Мбайт (41%)
Библиотека кодирования : XviD 1.2.1 (UTC 2008-12-04)

Аудио #1
Идентификатор : 1
Формат : AC-3
Формат/Информация : Audio Coding 3
Расширение режима : CM (complete main)
Параметр Endianness формата : Big
Идентификатор кодека : 2000
Продолжительность : 1 ч. 2 м.
Продолжительность оригинала : 32 м. 19 с.
Вид битрейта : Постоянный
Битрейт : 192 Кбит/сек
Каналы : 2 канала
Расположение каналов : Front: L R
Частота : 48,0 КГц
Частота кадров : 31,250 кадров/сек (1536 spf)
Метод сжатия : С потерями
Задержка видео : 4 мс.
Размер потока : 44,4 Мбайт (5%)
Выравнивание : Разделение по промежуткам
Продолжительность промежутка : 42 мс. (1,00 видеокадр)
Время предзагрузки промежутка : 500 мс.

Аудио #2
Идентификатор : 2
Формат : AC-3
Формат/Информация : Audio Coding 3
Расширение режима : CM (complete main)
Параметр Endianness формата : Big
Идентификатор кодека : 2000
Продолжительность : 1 ч. 2 м.
Продолжительность оригинала : 32 м. 19 с.
Вид битрейта : Постоянный
Битрейт : 192 Кбит/сек
Каналы : 2 канала
Расположение каналов : Front: L R
Частота : 48,0 КГц
Частота кадров : 31,250 кадров/сек (1536 spf)
Метод сжатия : С потерями
Размер потока : 44,4 Мбайт (5%)
Выравнивание : Разделение по промежуткам
Продолжительность промежутка : 42 мс. (1,00 видеокадр)
Время предзагрузки промежутка : 500 мс.

Внимание! Раздача ведётся путём добавления новых серий; при каждом добавлении создаётся новый торрент. Чтобы начать докачку новой серии, пользователям необходимо сделать следующее:
(1) остановить скачивание,
(2) удалить старый торрент у себя из клиента (старые серии удалять не надо),
(3) скачать новый торрент и запустить его у себя в клиенте вместо старого, при этом указать клиенту путь в старую папку куда и должно происходить скачивание новых серий.
Ваш клиент при этом должен произвести хеширование (проверку) старой папки (если не производит сам - помогите ему сделать это), и будет докачивать только те серии которых у вас ещё нет. Старые серии при этом не удаляются, а продолжают раздаваться!
Eсли вы уже удалили старые серии, то предотвратить повторную закачку старых серий можно, отжав галочку в соответствующих местах при запуске нового торрента. По возможности, желательно не удалять старые серии как можно дольше чтобы релизёр не столько продолжал раздавать старые серии, а смог сконцентрироваться на новых.
pb.wtf



Скачать Город на холме через торрент https://i110.fastpic.ru/big/2019/0616/45/28640b023c1cc60d9eaaf6f439273845.jpg Скачать фильм Город на холме через торрент бесплантно в хорошем качестве Описание: Действие разворачивается в начале 1990-х в Бостоне, погрязшем в преступности, коррупции и расизме. Однажды в городе появляется ... 10 10 2
Торрент: Зарегистрирован [2019-06-18 06:16] · скачан: 32 раз
Статус: √ проверено
Размер: 891 MB
Как cкачать? Как скачать Город на холме через торрент | qTorrent

% Раздел Тема Автор DL S | L
Зарубежные сериалы [ 42.21 GB ] Город на холме / City on a Hill / Сезон: 1 / Серии: 1-10 из 10 [2019 WEB-DL 1080p] MVO [Lostfilm] bober100 Скачать
1 | 0
Зарубежные сериалы [ 25.48 GB ] Город на холме / City on a Hill / Сезон: 1 / Серия: 1-10 из 10 [2019 WEB-DL 720p] 3x[MVO] killermax2013 Скачать
2 | 0
Зарубежные сериалы [ 20.17 GB ] Город на холме / City on a Hill / Сезон: 1 / Серии: 1-10 из 10 [2019 WEB-DL 720p] MVO [TVShows] bober100 Скачать
1 | 0
T Зарубежные сериалы [ 8.73 GB ] Город на холме / City on a Hill / Сезон: 1 / Серии: 1-10 из 10 [2019 WEB-DLRip] MVO [IdeaFilm] bober100 Скачать
3 | 0
Зарубежные сериалы [ 15.85 GB ] Город на холме / City on a Hill / Сезон: 1 / Серии: 1-8 из 10 [2019 WEB-DL 720p] MVO [Amedia] bober100 Скачать
2 | 0
Зарубежные сериалы [ 42.61 GB ] Город на холме / City on a Hill / Сезон: 1 / Серии: 1-10 из 10 [2019 WEB-DL 1080p] MVO [Amedia] bober100 Скачать
1 | 0
Зарубежные сериалы [ 8 GB ] Город на холме / City on a Hill / Сезон: 1 / Серии: 1-10 из 10 [2019 WEBRip] MVO [LostFilm] bober100 Скачать
4 | 0


>> Регистрируемся здесь <<






Отзывы и комментарии о схеме читаем и пишем здесь: ---> Отзывы и комментарии о схеме

Новые благодарочки в телеграм довольных пользователей:
скриншот   скриншот   скриншот   скриншот   скриншот

20-06-2019 21:04 Город на холме Скачать торрент  

Начало отличное, буду смотреть дальше.pb.wtf



    Дорогой пользователь! Огромная просьба, поблагодарите релизера, оцените раздачу и оставьте свои комментарий, если Вы скачали Город на холме через торрент бесплатно! Внесите свою лепту в развитие PiratBit!
    Комментировать посты могут только пользователи прошедшие не сложную регистрацию
    Показать сообщения:    

    Город на холме через торрент
    Скачать бесплатно Город на холме
    Город на холме скачать торрент
    Город на холме смотреть онлайн
    Cкачать фильм Город на холме бесплатно
    Город на холме скачать торрент в хорошем качестве
    Город на холме смотреть онлайн бесплатно в хорошем качестве


    Вы не можете начинать темы
    Вы не можете отвечать на сообщения
    Вы не можете редактировать свои сообщения
    Вы не можете удалять свои сообщения
    Вы не можете голосовать в опросах
    Вы не можете прикреплять файлы к сообщениям
    Вы можете скачивать файлы