Ссылка на приватное зеркало всего за 1$. Внимание количество ограничено!!!

iTunes

1+1

iTunes

мы

iTunes

1

iTunes

Джокер

Пифагор

Ведьмак / The Witcher сериал

iTunes

ПШазам

iTunes

Оно 2

iTunes

30
pack

Новость дня

ВАЖНО

!!Акция!!

Alien_RageХит недели

RePack

Resident Evil 21

ИГРА 18+

pack

RePack

jed

!!Акция!!

Alien_Rage

RePack

fifa19

RePack

Assassins Creed: Odyssey

RePack

NEED FOR SPEED™ PAYBACK

4 сезон

9 сезон

Бесстыжие 9 сезон

Все сериалы

все сериалы на PB.wtf

RePack

FAR CRY 5
  

Эмигранты / Utvandrarna (Ян Труэль) [1971, драма, история, BDRip 1080p by msltel] DVO pb.wtf

Эмигранты через торрент pb.wtf

Размер: 22.48 GB | Добавлен: 9 мес. назад | Торрент скачан:5 раз
Скачать  

18-06-2019 06:53 Эмигранты Скачать торрент  

Название: Эмигранты
Оригинальное название: Utvandrarna
Год выпуска: 1971
Страна: Швеция
Жанр: драма, история
Продолжительность: 03:12:06
Перевод: закадровый двухголосый

Режиссер: Ян Труэль
В ролях: Макс фон Сюдов, Лив Ульман, Эдди Аксберг, Свен-Улоф Берн, Айна Альфредсон, Моника Зеттерлунд, Ханс Альфредсон, Оке Фриделль

О фильме: 1844 год. В провинции Смоланд, на юге Швеции, проживает крестьянская супружеская пара Карл-Оскар и Кристина Нильссоны. Несколько лет подряд выдались неурожайными, а семья с каждым годом становится всё больше. Младший брат Карла-Оскара Роберт, 15-летний мечтательный подросток, вынужден устроиться батраком на соседнюю ферму, где терпит побои и издевательства со стороны хозяина. Постепенно у братьев созревает идея перебраться в Америку, где, как пишут в газетах, много земли и можно быстро разбогатеть. К Нильссонам присоединяется группа людей под началом Даниэля, испытывающая религиозные преследования со стороны местных властей. Им предстоит проделать долгий и тяжёлый путь, прежде чем они достигнут столь желанной Миннесоты... Фильм основан на двух романах писателя Вильхельма Муберга — «Эмигранты» (Utvandrarna, 1949) и «Иммигранты» (Invandrarna, 1952). (Википедия)



Качество: BDRip 1080p
Формат: MKV
Видео: MPEG-4 AVC, 15.8 Mбит/с, 1800x1080
Аудио 1: русский, AC3, 192 kbps, 2 ch, 48 kHz [закадровый двухголосый, НТВ со вставками lehachuev]
Аудио 2: шведский, DTS, 768 kbps, 1 ch, 48 kHz [оригинал]
Субтитры: английские
Главы/чаптеры
Общее
Уникальный идентификатор : 219212745343288812907122563185996339986 (0xA4EAD6CBA3CC81559DA91F4DE6A61B12)
Полное имя : D:\Video\Эмигранты.1971.BDRip 1080p by msltel.mkv
Формат : Matroska
Версия формата : Version 4
Размер файла : 22,5 Гбайт
Продолжительность : 3 ч. 12 м.
Общий поток : 16,8 Мбит/сек
Название фильма : Rip by msltel
Дата кодирования : UTC 2019-06-18 05:12:46
Программа кодирования : mkvmerge v8.2.0 ('World of Adventure') 64bit
Библиотека кодирования : libebml v1.3.1 + libmatroska v1.4.2

Видео
Идентификатор : 1
Формат : AVC
Формат/Информация : Advanced Video Codec
Профиль формата : High@L4.1
Настройки формата : CABAC / 4 Ref Frames
Параметр CABAC формата : Да
Параметр RefFrames формата : 4 кадра
Идентификатор кодека : V_MPEG4/ISO/AVC
Продолжительность : 3 ч. 12 м.
Битрейт : 15,8 Мбит/сек
Ширина : 1800 пикселей
Высота : 1080 пикселей
Соотношение сторон : 5:3
Режим частоты кадров : Постоянный
Частота кадров : 23,976 (24000/1001) кадра/сек
Цветовое пространство : YUV
Субдискретизация насыщенности : 4:2:0
Битовая глубина : 8 бит
Тип развёртки : Прогрессивная
Бит/(Пиксели*Кадры) : 0.339
Размер потока : 21,2 Гбайт (94%)
Библиотека кодирования : x264 core 157 r2935 545de2f
Настройки программы : cabac=1 / ref=4 / deblock=1:-2:-2 / analyse=0x3:0x113 / me=umh / subme=11 / psy=1 / psy_rd=1.00:0.15 / mixed_ref=1 / me_range=32 / chroma_me=1 / trellis=2 / 8x8dct=1 / cqm=0 / deadzone=21,11 / fast_pskip=0 / chroma_qp_offset=-3 / threads=6 / lookahead_threads=1 / sliced_threads=0 / nr=0 / decimate=1 / interlaced=0 / bluray_compat=0 / constrained_intra=0 / bframes=9 / b_pyramid=2 / b_adapt=2 / b_bias=0 / direct=1 / weightb=1 / open_gop=0 / weightp=2 / keyint=230 / keyint_min=23 / scenecut=40 / intra_refresh=0 / rc_lookahead=40 / rc=crf / mbtree=1 / crf=20.7 / qcomp=0.60 / qpmin=0 / qpmax=69 / qpstep=4 / vbv_maxrate=50000 / vbv_bufsize=62500 / crf_max=0.0 / nal_hrd=none / filler=0 / ip_ratio=1.40 / aq=1:1.00
Язык : Swedish
Default : Да
Forced : Нет

Аудио #1
Идентификатор : 2
Формат : AC-3
Формат/Информация : Audio Coding 3
Коммерческое название : Dolby Digital
Идентификатор кодека : A_AC3
Продолжительность : 3 ч. 12 м.
Вид битрейта : Постоянный
Битрейт : 192 Кбит/сек
Каналы : 2 канала
ChannelLayout : L R
Частота : 48,0 КГц
Частота кадров : 31,250 кадров/сек (1536 SPF)
Битовая глубина : 16 бит
Метод сжатия : С потерями
Размер потока : 264 Мбайт (1%)
Заголовок : DVO НТВ со вставками lehachuev
Язык : Russian
ServiceKind/String : Complete Main
Default : Да
Forced : Нет

Аудио #2
Идентификатор : 3
Формат : DTS
Формат/Информация : Digital Theater Systems
Идентификатор кодека : A_DTS
Продолжительность : 3 ч. 12 м.
Вид битрейта : Постоянный
Битрейт : 768 Кбит/сек
Каналы : 1 канал
ChannelLayout : C
Частота : 48,0 КГц
Частота кадров : 93,750 кадра/сек (512 SPF)
Битовая глубина : 24 бит
Метод сжатия : С потерями
Размер потока : 1,03 Гбайт (5%)
Заголовок : original
Язык : Swedish
Default : Нет
Forced : Нет

Текст
Идентификатор : 4
Формат : UTF-8
Идентификатор кодека : S_TEXT/UTF8
Идентификатор кодека/Информация : UTF-8 Plain Text
Продолжительность : 3 ч. 11 м.
Битрейт : 32 бит/сек
ElementCount : 1414
Размер потока : 46,1 Кбайт (0%)
Заголовок : английские
Язык : English
Default : Нет
Forced : Нет

Меню
00:00:00.000 : en:Karl Oskar
00:06:57.500 : en:Kristina
00:11:09.711 : en:Robert and the Cat
00:18:56.344 : en:A Young Farmhand
00:27:59.094 : en:A Dream of America
00:38:12.957 : en:Barn Up in Flames
00:41:19.936 : en:Robert's Ear
00:48:48.425 : en:The Brothers' Decision
00:55:55.018 : en:The Story of Danjel
01:04:15.060 : en:Anna
01:12:41.816 : en:The Chest for America
01:22:16.306 : en:Departure
01:37:13.077 : en:Intermission
01:37:27.884 : en:Aboard the Charlotta
01:47:10.633 : en:English Lessons
01:53:59.207 : en:Lice
02:00:42.444 : en:Seasickness
02:10:30.072 : en:Burial at Sea
02:22:24.161 : en:New York
02:31:35.461 : en:The Steam Wagon
02:37:21.807 : en:Riverboat Journey
02:50:16.540 : en:Taylors Falls
03:03:50.895 : en:Karl Oskar's Land
pb.wtf



Скачать Эмигранты через торрент https://d.radikal.ru/d14/1906/cf/4f355ebd23f1.jpg Скачать фильм Эмигранты через торрент бесплантно в хорошем качестве О фильме: 1844 год. В провинции Смоланд, на юге Швеции, проживает крестьянская супружеская пара Карл-Оскар и Кристина Нильссоны. Несколько ... 7.5 10 2
Торрент: Зарегистрирован [2019-06-18 06:53] · скачан: 5 раз
Статус: √ проверено
Размер: 22.48 GB
Как cкачать? Как скачать Эмигранты через торрент | qTorrent

% Раздел Тема Автор DL S | L
Классика зарубежного кино [ 8.12 GB ] Эмигранты / Utvandrarna [1971 история BDRip 720p by msltel] DVO msltel Скачать
2 | 0

28-11-2019 20:33  

Отключить всю рекламу на сайте

    Дорогой пользователь! Огромная просьба, поблагодарите релизера, оцените раздачу и оставьте свои комментарий, если Вы скачали Эмигранты через торрент бесплатно! Внесите свою лепту в развитие PiratBit!
    Комментировать посты могут только пользователи прошедшие не сложную регистрацию
    Показать сообщения:    

    Эмигранты через торрент
    Скачать бесплатно Эмигранты
    Эмигранты скачать торрент
    Эмигранты смотреть онлайн
    Cкачать фильм Эмигранты бесплатно
    Эмигранты скачать торрент в хорошем качестве
    Эмигранты смотреть онлайн бесплатно в хорошем качестве


    Вы не можете начинать темы
    Вы не можете отвечать на сообщения
    Вы не можете редактировать свои сообщения
    Вы не можете удалять свои сообщения
    Вы не можете голосовать в опросах
    Вы не можете прикреплять файлы к сообщениям
    Вы можете скачивать файлы