Ссылка на приватное зеркало всего за 1$. Внимание количество ограничено!!!

iTunes

1+1

iTunes

мы

WEB-DL

1

iTunes

Чернобыль

iTunes

Ральф против интернета

Лицензия

ПШазам

Лицензия

Оно 2

Лицензия

30
pack

Вам бонус

ВАЖНО

!!Акция!!

Alien_RageХит недели

RePack

Resident Evil 21

ИГРА 18+

pack

RePack

jed

!!Акция!!

Alien_Rage

RePack

fifa19

RePack

Assassins Creed: Odyssey

RePack

NEED FOR SPEED™ PAYBACK

3 сезон

9 сезон

Бесстыжие 9 сезон

Все сериалы

все сериалы на PB.wtf

RePack

FAR CRY 5
Ребята, катастрофически не хватает 1900р. для оплаты серверов за Октябрь (всвязи с блокировками трафик упал в 3 раза), 1-2р., выручайте.
  

Половодье (Искра Бабич) [1963, СССР, драма, SATRip от AVP Studio] pb.wtf

Половодье через торрент pb.wtf

Раздают: 3 [ 0 KB/s ]
Размер: 1.09 GB | Добавлен: 5 мес. 26 д. назад | Торрент скачан:7 раз
Скачать  

18-06-2019 09:04 Половодье Скачать торрент  

Половодье
Страна: СССР
Производство: Мосфильм

Жанр: драма
Год выпуска: 1963
Продолжительность: 01:31:21

Перевод: Не требуется
Cубтитры: нет
Оригинальная аудиодорожка: русский

Режиссер: Искра Бабич

В ролях:
Галина Яцкина, Валентин Зубков, Евгений Шутов, Вера Кузнецова, Софья Гаррель, Наталья Никонова, Руфина Яковлева, Валентина Березуцкая, Ольга Маркина, Раиса Андриуцэ-Кириллова, Наталья Крачковская, Т. Богданова (II), Рудольф Панков, Владимир Смирнов, Сергей Калинин...
Об актёрах подробней

Описание:
Молодая доярка Даша (Галина Яцкина), героиня труда, вышла замуж за Зиновия (Валентин Зубков). Построили дом, завели хозяйство, отгородились забором. В ожидании первенца Зиновий отсчитывал дни и мечтал о переезде в город.

Исходник: DVB
Качество видео: SATRip
Формат видео: AVI

Видео: 704x528 (4:3), 25,000 кадров/сек, XviD ~ 1507 kbps avg, 0.162 bit/pixel
Аудио: 48 kHz, Dolby Digital AC3 2.0, 192 kbps

Раздача от:
Общее
Полное имя : Polovode.1963.SATRip_[New-team]_by_AVP_Studio.avi
Формат : AVI
Формат/Информация : Audio Video Interleave
Размер файла : 1,09 Гбайт
Продолжительность : 1 ч. 31 м.
Общий поток : 1708 Кбит/сек
Программа кодирования : VirtualDubMod 1.5.10.3 | www.virtualdub-fr.org || (build 2550/release)
Библиотека кодирования : VirtualDubMod build 2550/release

Видео
Идентификатор : 0
Формат : MPEG-4 Visual
Профиль формата : Advanced Simple@L5
Настройки формата : BVOP1 / Custom Matrix
Параметр BVOP формата : 1
Параметр QPel формата : Нет
Параметр GMC формата : Без точки перехода
Параметр матрицы формата : Выборочная
Идентификатор кодека : XVID
Идентификатор кодека/Подсказка : XviD
Продолжительность : 1 ч. 31 м.
Битрейт : 1507 Кбит/сек
Ширина : 704 пикселя
Высота : 528 пикселей
Соотношение сторон : 4:3
Частота кадров : 25,000 кадров/сек
Цветовое пространство : YUV
Субдискретизация насыщенности : 4:2:0
Битовая глубина : 8 бит
Тип развёртки : Прогрессивная
Метод сжатия : С потерями
Бит/(Пиксели*Кадры) : 0.162
Размер потока : 984 Мбайт (88%)
Библиотека кодирования : XviD 73

Аудио
Идентификатор : 1
Формат : AC-3
Формат/Информация : Audio Coding 3
Коммерческое название : Dolby Digital
Идентификатор кодека : 2000
Продолжительность : 1 ч. 31 м.
Вид битрейта : Постоянный
Битрейт : 192 Кбит/сек
Каналы : 2 канала
ChannelLayout : L R
Частота : 48,0 КГц
Частота кадров : 31,250 кадров/сек (1536 SPF)
Битовая глубина : 16 бит
Метод сжатия : С потерями
Размер потока : 125 Мбайт (11%)
Выравнивание : Разделение по промежуткам
Продолжительность промежутка : 40 мс. (1,00 видеокадр)
Время предзагрузки промежутка : 500 мс
pb.wtf



Скачать Половодье через торрент http://picplus.ru/img/1906/18/ad08f882.png Скачать фильм Половодье через торрент бесплантно в хорошем качестве Описание:Молодая доярка Даша (Галина Яцкина), героиня труда, вышла замуж за Зиновия (Валентин Зубков). Построили дом, завели хозяйство, ... 5 10 1
Торрент: Зарегистрирован [2019-06-18 09:04] · скачан: 7 раз
Статус: √ проверено
Размер: 1.09 GB
Как cкачать? Как скачать Половодье через торрент | qTorrent

% Раздел Тема Автор DL S | L
Кино СССР [ 1.09 GB ] Половодье [1963 СССР SATRip-AVC от AVP Studio] AVP Studio Скачать
2 | 0

28-11-2019 20:33  

Отключить всю рекламу на сайте

    Дорогой пользователь! Огромная просьба, поблагодарите релизера, оцените раздачу и оставьте свои комментарий, если Вы скачали Половодье через торрент бесплатно! Внесите свою лепту в развитие PiratBit!
    Комментировать посты могут только пользователи прошедшие не сложную регистрацию
    Показать сообщения:    

    Половодье через торрент
    Скачать бесплатно Половодье
    Половодье скачать торрент
    Половодье смотреть онлайн
    Cкачать фильм Половодье бесплатно
    Половодье скачать торрент в хорошем качестве
    Половодье смотреть онлайн бесплатно в хорошем качестве


    Вы не можете начинать темы
    Вы не можете отвечать на сообщения
    Вы не можете редактировать свои сообщения
    Вы не можете удалять свои сообщения
    Вы не можете голосовать в опросах
    Вы не можете прикреплять файлы к сообщениям
    Вы можете скачивать файлы