новый адрес
Ссылка на приватное зеркало всего за 1$. Внимание количество ограничено!!!

iTunes

1+1

iTunes

мы

WEB-DL

1

iTunes

Чернобыль

iTunes

Ральф против интернета

Лицензия

ПШазам

Лицензия

Оно 2

Лицензия

30
pack

Вам бонус

ВАЖНО

!!Акция!!

Alien_RageХит недели

RePack

Resident Evil 21

ИГРА 18+

pack

RePack

jed

!!Акция!!

Alien_Rage

RePack

fifa19

RePack

Assassins Creed: Odyssey

RePack

NEED FOR SPEED™ PAYBACK

3 сезон

9 сезон

Бесстыжие 9 сезон

Все сериалы

все сериалы на PB.wtf

RePack

FAR CRY 5
Ребята, катастрофически не хватает 1900р. для оплаты серверов за Октябрь (всвязи с блокировками трафик упал в 3 раза), 1-2р., выручайте.
  

Круг второй (Александр Сокуров) [1990 г., Драма, DVDRip-AVC] pb.wtf

Круг второй через торрент pb.wtf

Размер: 1.08 GB | Добавлен: 5 мес. 23 д. назад | Торрент скачан:7 раз
Скачать  

18-06-2019 19:10 Круг второй Скачать торрент  

Круг второй
Год выпуска: 1990
Страна: СССР
Жанр: Драма
Продолжительность: 01:25:34
Субтитры: Английские (отключаемые)

Режиссер: Александр Сокуров

rating

В ролях: Петр Александров, Надежда Роднова, Тамара Тимофеева, Александр Быстряков, Р. Молокеев, Д. Самохин, Н. Сидаш, О. Игнатов, Ф. Потапов, Сергей Выборнов

Описание: Герой фильма, у которого умер отец, проходит все круги, суждёные человеку в эту трагическую пору — муку вины, и муку беспомощного сострадания. Он приезжает в зимний арктический город один, его обворовывают, и он должен как-то и на что-то устраивать похороны. Эпическая простота и хроникальные подробности выявляют отсутствие связей в нашей жизни, механическую инерцию распавшихся общечеловеческих ритуалов, имевших когда-то глубокий смысл...
Александр Сокуров (из авторской аннотации к фильму):
«Скорбный долг сына, единый для всех живущих — похоронить отца. Главное и единственное событие фильма «Круг второй», запечатленное с эпической простотой и подробностью факта. Но именно в нем зримо выявились все разъятые связи нашей жизни, бессмысленная инерция распавшихся ритуалов, имевших когда–то и сокровенное содержание и значение… Мертвый отец, мертвый город, мертвые времена, и день неотличим от ночи, а жизнь — от небытия. Бесследный уход, ничтожное наследство — горсть фальшивых реликвий, подытоживших целую жизнь... Вот он, трагический исход исторического заблуждения нашего общества — общества, дерзнувшего оборвать связь времен и обойтись социальной догмой».
Качество: DVDRip-AVC
Формат: MKV
Видео кодек: AVC
Аудио кодек: AC3
Видео: AVC, 712×480 , 25.0fps, 1579 Kbps
Аудио#1: AC3 , 2 ch , 48 kHz , 192 kbps
скриншот   скриншот   скриншот   скриншот   скриншот   скриншот   скриншот   скриншот   скриншот  

Общее
Уникальный идентификатор : 202148746437908290084874634784340069608 (0x98146EB1AB37A68E92F154A27EDA4CE8)
Полное имя : D:Krug.vtoroy_1990.DVDRip-AVC.mkv
Формат : Matroska
Версия формата : Version 4 / Version 2
Размер файла : 1,08 Гбайт
Продолжительность : 1 ч. 25 м.
Общий поток : 1807 Кбит/сек
Дата кодирования : UTC 2019-05-26 17:30:48
Программа кодирования : mkvmerge v9.5.0 ('Quiet Fire') 64bit
Библиотека кодирования : libebml v1.3.4 + libmatroska v1.4.5
DURATION : 01:24:00.430000000
NUMBER_OF_FRAMES : 316
NUMBER_OF_BYTES : 706960
_STATISTICS_WRITING_APP : mkvmerge v9.5.0 ('Quiet Fire') 64bit
_STATISTICS_WRITING_DATE_UTC : 2019-05-26 17:30:48
_STATISTICS_TAGS : BPS DURATION NUMBER_OF_FRAMES NUMBER_OF_BYTES

Видео
Идентификатор : 1
Формат : AVC
Формат/Информация : Advanced Video Codec
Профиль формата : High@L3.1
Параметр CABAC формата : Да
Параметр ReFrames формата : 8 кадров
Идентификатор кодека : V_MPEG4/ISO/AVC
Продолжительность : 1 ч. 25 м.
Битрейт : 1579 Кбит/сек
Ширина : 712 пикселей
Высота : 480 пикселей
Соотношение сторон : 4:3
Режим частоты кадров : Постоянный
Частота кадров : 25,000 кадров/сек
Цветовое пространство : YUV
Субдискретизация насыщенности : 4:2:0
Битовая глубина : 8 бит
Тип развёртки : Прогрессивная
Бит/(Пиксели*Кадры) : 0.185
Размер потока : 966 Мбайт (87%)
Библиотека кодирования : x264 core 157 r2935 545de2f
Настройки программы : cabac=1 / ref=8 / deblock=1:-2:-2 / analyse=0x3:0x133 / me=umh / subme=9 / psy=1 / psy_rd=1.00:0.15 / mixed_ref=1 / me_range=32 / chroma_me=1 / trellis=2 / 8x8dct=1 / cqm=0 / deadzone=21,11 / fast_pskip=1 / chroma_qp_offset=-3 / threads=3 / lookahead_threads=1 / sliced_threads=0 / nr=0 / decimate=1 / interlaced=0 / bluray_compat=0 / constrained_intra=0 / bframes=8 / b_pyramid=2 / b_adapt=2 / b_bias=0 / direct=3 / weightb=1 / open_gop=0 / weightp=2 / keyint=251 / keyint_min=12 / scenecut=100 / intra_refresh=0 / rc_lookahead=60 / rc=crf / mbtree=1 / crf=18.0 / qcomp=0.60 / qpmin=0 / qpmax=69 / qpstep=4 / vbv_maxrate=17500 / vbv_bufsize=17500 / crf_max=0.0 / nal_hrd=none / filler=0 / ip_ratio=1.40 / aq=1:1.00
Язык : Russian
Default : Да
Forced : Да
Коэффициенты матрицы : BT.601
DURATION : 01:25:34.000000000
NUMBER_OF_FRAMES : 128350
NUMBER_OF_BYTES : 1034420441
_STATISTICS_WRITING_APP : mkvmerge v9.5.0 ('Quiet Fire') 64bit
_STATISTICS_WRITING_DATE_UTC : 2019-05-26 17:30:48
_STATISTICS_TAGS : BPS DURATION NUMBER_OF_FRAMES NUMBER_OF_BYTES

Аудио
Идентификатор : 2
Формат : AC-3
Формат/Информация : Audio Coding 3
Расширение режима : CM (complete main)
Параметр Endianness формата : Big
Идентификатор кодека : A_AC3
Продолжительность : 1 ч. 25 м.
Вид битрейта : Постоянный
Битрейт : 192 Кбит/сек
Каналы : 2 канала
Расположение каналов : Front: L R
Частота : 48,0 КГц
Битовая глубина : 16 бит
Метод сжатия : С потерями
Размер потока : 118 Мбайт (11%)
Язык : Russian
Default : Да
Forced : Да

Текст
Идентификатор : 3
Формат : VobSub
Идентификатор кодека : S_VOBSUB
Идентификатор кодека/Информация : The same subtitle format used on DVDs
Язык : English
Default : Нет
Forced : Нет

Меню
00:00:00.000 : en:Chapter 01
00:08:23.267 : en:Chapter 02
00:14:09.068 : en:Chapter 03
00:21:04.936 : en:Chapter 04
00:27:29.036 : en:Chapter 05
00:37:37.470 : en:Chapter 06
00:41:57.637 : en:Chapter 07
00:49:53.670 : en:Chapter 08
00:56:14.004 : en:Chapter 09
01:01:12.771 : en:Chapter 10
01:09:46.472 : en:Chapter 11
01:18:01.039 : en:Chapter 12
01:25:29.573 : en:Chapter 13

pb.wtf



Скачать Круг второй через торрент http://pic1.kartinco.top/images/12/hddua.jpg Скачать фильм Круг второй через торрент бесплантно в хорошем качестве Описание: Герой фильма, у которого умер отец, проходит все круги, суждёные человеку в эту трагическую пору — муку вины, и муку беспомощного ... 10 10 1
Торрент: Зарегистрирован [2019-06-18 19:10] · скачан: 7 раз
Статус: √ проверено
Размер: 1.08 GB
Как cкачать? Как скачать Круг второй через торрент | qTorrent

28-11-2019 20:33  

Отключить всю рекламу на сайте

    Дорогой пользователь! Огромная просьба, поблагодарите релизера, оцените раздачу и оставьте свои комментарий, если Вы скачали Круг второй через торрент бесплатно! Внесите свою лепту в развитие PiratBit!
    Комментировать посты могут только пользователи прошедшие не сложную регистрацию
    Показать сообщения:    

    Круг второй через торрент
    Скачать бесплатно Круг второй
    Круг второй скачать торрент
    Круг второй смотреть онлайн
    Cкачать фильм Круг второй бесплатно
    Круг второй скачать торрент в хорошем качестве
    Круг второй смотреть онлайн бесплатно в хорошем качестве


    Вы не можете начинать темы
    Вы не можете отвечать на сообщения
    Вы не можете редактировать свои сообщения
    Вы не можете удалять свои сообщения
    Вы не можете голосовать в опросах
    Вы не можете прикреплять файлы к сообщениям
    Вы можете скачивать файлы