1 сезон

1 сезон

iTunes

1

КиноПоиск HD

Кинопоиск HD

iTunes

13

1 сезон

RePack

30

Новинка

ВАЖНО

ИГРА 18+

pack

RePack

MK11
pack

Легкие деньги

RePack

jed

RePack

fifa19

RePack

RDR2

RePack

NEED FOR SPEED™ PAYBACK

4 сезон

9 сезон

Бесстыжие 9 сезон

Все сериалы

все сериалы на PB.wtf

RePack

FAR CRY 5
  
Magnet ссылка

Анатомия 2 / Anatomie 2 (Штефан Руцовицки) [2003 г., ужасы, фантастика, триллер, DVDRip] MVO pb.wtf

Анатомия 2 через торрент pb.wtf

Размер: 1.56 GB | Добавлен: 1 год 10 мес. назад | Торрент скачан:20 раз
Скачать  

18-06-2019 19:40 Анатомия 2 Скачать торрент  

Анатомия 2 / Anatomie 2 Год выпуска: 2003
Страна: Германия
Жанр: Ужасы, фантастика, триллер
Продолжительность: 01:37:10
Перевод: Профессиональный (многоголосый)

Режиссер: Штефан Руцовицки

rating

В ролях: Ариане Шнуг, Аугуст Диль, Херберт Кнауп, Биргит фон Рённ, Клаус Шиндлер, Барнаби Мечурат, Ханно Коффлер, Беате Абрахам, Оливер Краатц, Рози Альварез

Описание: Хоаким Хаузер становится врачом госпиталя в Берлине. Вскоре он узнаёт о существовании в госпитале элитной группы врачей-исследователей, помогающих знаменитому профессору Чарльзу Мюллеру-Ла Руссу. Однажды Хоаким делает запрещённую операцию, чтобы спасти жизнь незастрахованного ребёнка иммигрантов. Об этом узнаёт профессор Ла Русс. Но вместе выговора Хоаким получает предложение присоединиться к их коллективу учёных и врачей.
Качество: DVDRip
Формат: AVI
Видео: XviD, 1972 Кбит/с, 720x304
Аудио#1: Русский, MP3, 2 ch, 320 Кбит/с
Видео
Идентификатор : 0
Формат : MPEG-4 Visual
Профиль формата : Advanced Simple@L5
Настройки формата : BVOP1 / Custom Matrix
Параметр BVOP формата : 1
Параметр QPel формата : Нет
Параметр GMC формата : Без точки перехода
Параметр матрицы формата : Выборочная
Идентификатор кодека : XVID
Идентификатор кодека/Подсказка : XviD
Продолжительность : 1 ч. 37 м.
Битрейт : 1972 Кбит/сек
Ширина : 720 пикселей
Высота : 304 пикселя
Соотношение сторон : 2,35:1
Частота кадров : 25,000 кадров/сек
Частота кадров в оригинале : 23,976 кадра/сек
Цветовое пространство : YUV
Субдискретизация насыщенности : 4:2:0
Битовая глубина : 8 бит
Тип развёртки : Прогрессивная
Метод сжатия : С потерями
Бит/(Пиксели*Кадры) : 0.360
Размер потока : 1,34 Гбайт (86%)
Библиотека кодирования : XviD 1.1.2 (UTC 2006-11-01)

Аудио
Идентификатор : 1
Формат : MPEG Audio
Идентификатор кодека : 55
Идентификатор кодека/Подсказка : MP3
Продолжительность : 1 ч. 34 м.
Битрейт : 320 Кбит/сек
Каналы : 2 канала
Частота : 44,1 КГц
Метод сжатия : С потерями
Размер потока : 215 Мбайт (14%)
Выравнивание : Разделение по промежуткам
Продолжительность промежутка : 41 мс. (1,03 видеокадр)
Время предзагрузки промежутка : 500 мс.
Язык : Deutsch

скриншот   скриншот   скриншот   скриншот   скриншот  

pb.wtf



Скачать Анатомия 2 через торрент https://i2.imageban.ru/out/2019/06/18/f1828e9cd6cac0cee46b3bd0f68c0de1.gif Скачать фильм Анатомия 2 через торрент бесплантно в хорошем качестве Описание: Хоаким Хаузер становится врачом госпиталя в Берлине. Вскоре он узнаёт о существовании в госпитале элитной группы ... 5 10 1
Торрент: Зарегистрирован [2019-06-18 19:40] · скачан: 20 раз
Статус: √ проверено
Размер: 1.56 GB
Как cкачать? Как скачать Анатомия 2 через торрент | UTorrent

% Раздел Тема Автор DL S | L
Зарубежные сериалы [ 10.25 GB ] Анатомия Грей / Анатомия страсти / Grey's Anatomy / Сезон: 2 / Серии 1-27 [ 2006 DVDRip ] MVO Messa-fan Скачать
1 | 0

28-11-2019 20:33  

Отключить всю рекламу на сайте

    Дорогой пользователь! Огромная просьба, поблагодарите релизера, оцените раздачу и оставьте свои комментарий, если Вы скачали Анатомия 2 через торрент бесплатно! Внесите свою лепту в развитие PiratBit!
    Комментировать посты могут только пользователи прошедшие не сложную регистрацию
    Показать сообщения:    

    Анатомия 2 через торрент
    Скачать бесплатно Анатомия 2
    Анатомия 2 скачать торрент
    Анатомия 2 смотреть онлайн
    Cкачать фильм Анатомия 2 бесплатно
    Анатомия 2 скачать торрент в хорошем качестве
    Анатомия 2 смотреть онлайн бесплатно в хорошем качестве


    Вы не можете начинать темы
    Вы не можете отвечать на сообщения
    Вы не можете редактировать свои сообщения
    Вы не можете удалять свои сообщения
    Вы не можете голосовать в опросах
    Вы не можете прикреплять файлы к сообщениям
    Вы можете скачивать файлы