Ссылка на приватное зеркало нашего сайта всего за 1$. Внимание количество ограничено!!!

2 сезон

iTunes

1 сезон

1

2 сезон

2 сезон

iTunes

1 сезон

RePack

30

Новинка

ВАЖНО

ИГРА 18+

pack

RePack

MK11
pack

Забери бонус

RePack

jed

!!Акция!!

Alien_Rage

RePack

fifa19

RePack

Assassins Creed: Odyssey

RePack

NEED FOR SPEED™ PAYBACK

4 сезон

9 сезон

Бесстыжие 9 сезон

Все сериалы

все сериалы на PB.wtf

RePack

FAR CRY 5
  

Слишком стар, чтобы умереть молодым / Too Old to Die Young / Сезон: 1 / Серии: 1-10 из 10 (Николас Виндинг Рефн) [2019, драма, криминал, триллер, WEBRip 720p] [MVO] (TVShows) pb.wtf

Слишком стар, чтобы умереть молодым через торрент pb.wtf

Размер: 27.15 GB | Добавлен: 1 год 4 мес. назад | Торрент скачан:16 раз
Скачать  

18-06-2019 19:42 Слишком стар, чтобы умереть молодым Скачать торрент  

Слишком стар, чтобы умереть молодым / Too Old to Die Young

Год выпуска: 2019
Страна: США
Жанр: драма, криминал, триллер
Продолжительность: ~ 01:30:00 серия
Перевод: Профессиональный (многоголосый закадровый) TVShows

Режиссёр: Николас Виндинг Рефн

В ролях: Бабс Олусанмокун, Селестин Кориэль, Майлз Теллер, Нелл Тайгер Фри, Уильям Болдуин, Александр Гомес, Джон Хоукс, Августо Агилера, Джена Мэлоун, Кристина Родло и др.

Описание: Полицейский Мартин во время службы убил «не ту женщину» и оказался вовлечён в гангстерский конфликт. Теперь подполье ждёт, что он искупит вину. Среди сторон — якудза, русская мафия, мексиканские наёмники и банды тинейджеров.

ratingскриншот  

Качество: WEBRip 720p
Контейнер: MKV
Видео: MPEG-4 AVC, ~ 4893 Кбит/с, 1280x692
Аудио 1: Русский, AC-3, 48.0 kHz, 6 ch, 384 kb/s
Аудио 2: Английский, E-AC-3, 48.0 kHz, 6 ch, 640 kb/s
Субтитры: English
General
Unique ID : 243486759170396252226943780497997250620 (0xB72DD813F9CFE68638E3AF7498D9403C)
Complete name : E:\Too.Old.to.Die.Young.S01.720p.TVShows\Too.Old.to.Die.Young.S01E01.720p.TVShows.mkv
Format : Matroska
Format version : Version 4 / Version 2
File size : 3.18 GiB
Duration : 1 h 33 min
Overall bit rate : 4 893 kb/s
Encoded date : UTC 2019-06-18 08:27:00
Writing application : mkvmerge v33.1.0 ('Primrose') 64-bit
Writing library : libebml v1.3.7 + libmatroska v1.5.0

Video
ID : 1
Format : AVC
Format/Info : Advanced Video Codec
Format profile : High@L3.1
Format settings : CABAC / 4 Ref Frames
Format settings, CABAC : Yes
Format settings, RefFrames : 4 frames
Codec ID : V_MPEG4/ISO/AVC
Duration : 1 h 33 min
Bit rate mode : Constant
Bit rate : 3 772 kb/s
Nominal bit rate : 6 000 kb/s
Width : 1 280 pixels
Height : 688 pixels
Display aspect ratio : 1.85:1
Frame rate mode : Constant
Frame rate : 24.000 FPS
Color space : YUV
Chroma subsampling : 4:2:0
Bit depth : 8 bits
Scan type : Progressive
Bits/(Pixel*Frame) : 0.178
Stream size : 2.45 GiB (77%)
Default : Yes
Forced : No
Color range : Limited
Color primaries : BT.709
Transfer characteristics : BT.709
Matrix coefficients : BT.709

Audio #1
ID : 2
Format : AC-3
Format/Info : Audio Coding 3
Format settings, Endianness : Big
Codec ID : A_AC3
Duration : 1 h 33 min
Bit rate mode : Constant
Bit rate : 384 kb/s
Channel(s) : 6 channels
Channel positions : Front: L C R, Side: L R, LFE
Sampling rate : 48.0 kHz
Frame rate : 31.250 FPS (1536 SPF)
Bit depth : 16 bits
Compression mode : Lossy
Stream size : 256 MiB (8%)
Title : TVShows
Language : Russian
Service kind : Complete Main
Default : Yes
Forced : Yes

Audio #2
ID : 3
Format : E-AC-3
Format/Info : Enhanced Audio Coding 3
Format settings, Endianness : Big
Codec ID : A_EAC3
Duration : 1 h 33 min
Bit rate mode : Constant
Bit rate : 640 kb/s
Channel(s) : 6 channels
Channel positions : Front: L C R, Side: L R, LFE
Sampling rate : 48.0 kHz
Frame rate : 187.500 FPS (256 SPF)
Compression mode : Lossy
Stream size : 426 MiB (13%)
Title : Original
Language : English
Service kind : Complete Main
Default : No
Forced : No

Text
ID : 4
Format : UTF-8
Codec ID : S_TEXT/UTF8
Codec ID/Info : UTF-8 Plain Text
Title : English
Language : English
Default : No
Forced : No
скриншот  скриншот  скриншот  
Внимание! Раздача ведётся путём добавления новых серий; при каждом добавлении создаётся новый торрент. Чтобы начать докачку новой серии, пользователям необходимо сделать следующее:
(1) остановить скачивание,
(2) удалить старый торрент у себя из клиента (старые серии удалять не надо),
(3) скачать новый торрент и запустить его у себя в клиенте вместо старого, при этом указать клиенту путь в старую папку куда и должно происходить скачивание новых серий.

Ваш клиент при этом должен произвести хеширование (проверку) старой папки (если не производит сам - помогите ему сделать это), и будет докачивать только те серии которых у вас ещё нет. Старые серии при этом не удаляются, а продолжают раздаваться!

Eсли вы уже удалили старые серии, то предотвратить повторную закачку старых серий можно, отжав галочку в соответствующих местах при запуске нового торрента. По возможности, желательно не удалять старые серии как можно дольше чтобы релизёр не столько продолжал раздавать старые серии, а смог сконцентрироваться на новых.
pb.wtf



Скачать Слишком стар, чтобы умереть молодым через торрент https://funkyimg.com/i/2UQqQ.png Скачать фильм Слишком стар, чтобы умереть молодым через торрент бесплантно в хорошем качестве Описание: Полицейский Мартин во время службы убил «не ту женщину» и оказался вовлечён в гангстерский конфликт. Теперь подполье ждёт, что он ... 6 10 2
Торрент: Зарегистрирован [2019-07-12 06:18] · скачан: 16 раз
Статус: √ проверено
Размер: 27.15 GB
Как cкачать? Как скачать Слишком стар, чтобы умереть молодым через торрент | qTorrent

% Раздел Тема Автор DL S | L
Фильмы с авторской озвучкой [ 81.14 GB ] Слишком стар чтобы умереть молодым / Too Old to Die Young / Сезон: 1 / Серии: 1-10 из 10 [2019 HDR HEVC WEB-DL 2160p] [AVO] killermax2013 Скачать
1 | 0
Зарубежные сериалы [ 53.96 GB ] Слишком стар чтобы умереть молодым / Too Old to Die Young / Сезон: 1 / Серии: 1-10 из 10 [2019 WEB-DL 1080p] MVO [Lostfilm] bober100 Скачать
1 | 0
Зарубежные сериалы [ 9.16 GB ] Слишком стар чтобы умереть молодым / Too Old to Die Young / Сезон: 1 / Серии: 1-8 из 10 [2019 WEB-DLRip] MVO [Lostfilm] bober100 Скачать
2 | 0
Зарубежные сериалы [ 27.15 GB ] Слишком стар чтобы умереть молодым / Too Old to Die Young / Сезон: 1 / Серии: 1-10 из 10 [2019 WEB-DL 720p] MVO [Lostfilm] bober100 Скачать
1 | 0
Зарубежные сериалы [ 10.57 GB ] Слишком стар чтобы умереть молодым / Too Old to Die Young / Сезон: 1 / Серии: 1-10 из 10 [2019 . WEB-DLRip] [MVO] killermax2013 Скачать
1 | 0
Зарубежные сериалы [ 52.6 GB ] Слишком стар чтобы умереть молодым / Too Old to Die Young / Сезон: 1 / Серии: 1-10 из 10 [2019 WEBRip 1080p] MVO [TVShows] bober100 Скачать
1 | 0
Фильмы без перевода [ 50.57 GB ] Слишком стар чтобы умереть молодым / Too Old to Die Young / Сезон: 1 / Серии: 1-10 из 10 [2019 WEBRip 1080p] [Sub] killermax2013 Скачать
1 | 0


Последний раз редактировалось: killermax2013 (2019-07-12 06:18), всего редактировалось 1 раз

28-11-2019 20:33  

Отключить всю рекламу на сайте

05-07-2019 04:14 Слишком стар, чтобы умереть молодым Скачать торрент  

а семпл где?pb.wtf



    Дорогой пользователь! Огромная просьба, поблагодарите релизера, оцените раздачу и оставьте свои комментарий, если Вы скачали Слишком стар, чтобы умереть молодым через торрент бесплатно! Внесите свою лепту в развитие PiratBit!
    Комментировать посты могут только пользователи прошедшие не сложную регистрацию
    Показать сообщения:    

    Слишком стар, чтобы умереть молодым через торрент
    Скачать бесплатно Слишком стар, чтобы умереть молодым
    Слишком стар, чтобы умереть молодым скачать торрент
    Слишком стар, чтобы умереть молодым смотреть онлайн
    Cкачать фильм Слишком стар, чтобы умереть молодым бесплатно
    Слишком стар, чтобы умереть молодым скачать торрент в хорошем качестве
    Слишком стар, чтобы умереть молодым смотреть онлайн бесплатно в хорошем качестве


    Вы не можете начинать темы
    Вы не можете отвечать на сообщения
    Вы не можете редактировать свои сообщения
    Вы не можете удалять свои сообщения
    Вы не можете голосовать в опросах
    Вы не можете прикреплять файлы к сообщениям
    Вы можете скачивать файлы