Ссылка на приватное зеркало нашего сайта всего за 1$. Внимание количество ограничено!!!

2 сезон

iTunes

1 сезон

1

2 сезон

2 сезон

iTunes

1 сезон

RePack

30

Ultimate

ВАЖНО

ИГРА 18+

pack

RePack

MK11
pack

Забери бонус

RePack

jed

!!Акция!!

Alien_Rage

RePack

fifa19

RePack

Assassins Creed: Odyssey

RePack

NEED FOR SPEED™ PAYBACK

4 сезон

9 сезон

Бесстыжие 9 сезон

Все сериалы

все сериалы на PB.wtf

RePack

FAR CRY 5
  

Баскетс / Baskets / Сезон: 4 / Серии: 1-10 из 10 (Джонатан Крисел) [2019, комедия, WEBRip 1080p] [DVO] (Ozz) pb.wtf

Баскетс через торрент pb.wtf

Размер: 17.57 GB | Добавлен: 1 год 3 мес. назад | Торрент скачан:1 раз
Скачать  

18-06-2019 20:24 Баскетс Скачать торрент  

Baskets - Fourth Season
Конченый - Четвертый сезон
Год выхода: 2019
Страна
: США
Жанр
: трагикомедия
Продолжительность: ~00:25:00
Перевод: Профессиональный (двухголосый закадровый) Ozz
Режиссер: Джонатан Крисел
В ролях: Зак Галифианакис, Малия Пайлс, Том Проктер, Гарри Клеммонс, Джейсон Клеммонс, Крис МакЛафлин, Лиана Мендоса, Брент Уолкер, Sabina Sciubba, Майлз Андерсон и др.
Описание: Новый проект Зака Галифианакиса и Луи Си Кея.
История Чипа Баскетса - чудаковатого калифорнийца, мечтающего стать профессиональным клоуном. Поступление в престижную парижскую школу, где учат этому ремеслу, он проваливает и устраивается работать клоуном на родео.
rating
Sample
Роли озвучивают: | Алексей Серёгин и Ирина Воронова |
Автор перевода: | Анна Симагина |
Подготовлено: Ozz
Качество: WEBRip 1080p
Формат: MKV
Видео кодек: x264
Аудио кодек: AC3
Видео: AVC, 1920x1080 (16:9), 23.976 fps, ~10000 kbps avg, 0.196 bit/pixel
Аудио #1: Russian 48 KHz, AC3, 2 channels, 192 Kbps |Ozz|
Аудио #2: English 48 KHz, AC3, 6 channels, 384 Kbps
Субтитры: Russian, English - (srt)

Код:

Общее
Уникальный идентификатор                 : 175577604344699726768943250971093860482 (0x8417043E65F9DA6D9F6524B59AD78082)
Полное имя                               : D:\Baskets.S04.1080p.WEBRip.Rus.Eng.Ozz\Baskets.S04E01.1080p.WEBRip.Rus.Eng.Ozz.mkv
Формат                                   : Matroska
Версия формата                           : Version 4 / Version 2
Размер файла                             : 1,61 Гбайт
Продолжительность                        : 21 м. 44 с.
Общий поток                              : 10,6 Мбит/сек
Дата кодирования                         : UTC 2019-06-18 06:43:07
Программа кодирования                    : mkvmerge v8.3.0 ('Over the Horizon') 64bit
Библиотека кодирования                   : libebml v1.3.1 + libmatroska v1.4.2

Видео
Идентификатор                            : 1
Формат                                   : AVC
Формат/Информация                        : Advanced Video Codec
Профиль формата                          : High@L4
Настройки формата                        : CABAC / 4 Ref Frames
Параметр CABAC формата                   : Да
Параметр RefFrames формата               : 4 кадра
Идентификатор кодека                     : V_MPEG4/ISO/AVC
Продолжительность                        : 21 м. 44 с.
Битрейт                                  : 9763 Кбит/сек
Ширина                                   : 1920 пикселей
Высота                                   : 1080 пикселей
Соотношение сторон                       : 16:9
Режим частоты кадров                     : Постоянный
Частота кадров                           : 23,976 (24000/1001) кадра/сек
Цветовое пространство                    : YUV
Субдискретизация насыщенности            : 4:2:0
Битовая глубина                          : 8 бит
Тип развёртки                            : Прогрессивная
Бит/(Пиксели*Кадры)                      : 0.196
Размер потока                            : 1,48 Гбайт (92%)
Язык                                     : English
Default                                  : Да
Forced                                   : Нет
Цветовой диапазон                        : Limited
Основные цвета                           : BT.709
Характеристики трансфера                 : BT.709
Коэффициенты матрицы                     : BT.709

Аудио #1
Идентификатор                            : 2
Формат                                   : AC-3
Формат/Информация                        : Audio Coding 3
Идентификатор кодека                     : A_AC3
Продолжительность                        : 21 м. 44 с.
Вид битрейта                             : Постоянный
Битрейт                                  : 192 Кбит/сек
Каналы                                   : 2 канала
Расположение каналов                     : Front: L R
Частота                                  : 48,0 КГц
Частота кадров                           : 31,250 кадров/сек (1536 SPF)
Битовая глубина                          : 16 бит
Метод сжатия                             : С потерями
Размер потока                            : 29,9 Мбайт (2%)
Заголовок                                : DVO Ozz-tv
Язык                                     : Russian
ServiceKind/String                       : Complete Main
Default                                  : Да
Forced                                   : Нет

Аудио #2
Идентификатор                            : 3
Формат                                   : E-AC-3
Формат/Информация                        : Enhanced Audio Coding 3
Идентификатор кодека                     : A_EAC3
Продолжительность                        : 21 м. 44 с.
Вид битрейта                             : Постоянный
Битрейт                                  : 640 Кбит/сек
Каналы                                   : 6 каналов
Расположение каналов                     : Front: L C R, Side: L R, LFE
Частота                                  : 48,0 КГц
Частота кадров                           : 187,500 кадров/сек (256 SPF)
Метод сжатия                             : С потерями
Задержка видео                           : 20 мс.
Размер потока                            : 99,6 Мбайт (6%)
Язык                                     : English
ServiceKind/String                       : Complete Main
Default                                  : Нет
Forced                                   : Нет

Текст #1
Идентификатор                            : 4
Формат                                   : UTF-8
Идентификатор кодека                     : S_TEXT/UTF8
Идентификатор кодека/Информация          : UTF-8 Plain Text
Продолжительность                        : 21 м. 11 с.
Битрейт                                  : 139 бит/сек
ElementCount                             : 499
Размер потока                            : 21,6 Кбайт (0%)
Язык                                     : Russian
Default                                  : Нет
Forced                                   : Нет

Текст #2
Идентификатор                            : 5
Формат                                   : UTF-8
Идентификатор кодека                     : S_TEXT/UTF8
Идентификатор кодека/Информация          : UTF-8 Plain Text
Продолжительность                        : 21 м. 28 с.
Битрейт                                  : 108 бит/сек
ElementCount                             : 538
Размер потока                            : 17,1 Кбайт (0%)
Язык                                     : English
Default                                  : Нет
Forced                                   : Нет

скриншот  скриншот  скриншот  
Внимание! Раздача ведётся путём добавления новых серий; при каждом добавлении создаётся новый торрент. Чтобы начать докачку новой серии, пользователям необходимо сделать следующее:
(1) остановить скачивание,
(2) удалить старый торрент у себя из клиента (старые серии удалять не надо),
(3) скачать новый торрент и запустить его у себя в клиенте вместо старого, при этом указать клиенту путь в старую папку куда и должно происходить скачивание новых серий.

Ваш клиент при этом должен произвести хеширование (проверку) старой папки (если не производит сам - помогите ему сделать это), и будет докачивать только те серии которых у вас ещё нет. Старые серии при этом не удаляются, а продолжают раздаваться!

Eсли вы уже удалили старые серии, то предотвратить повторную закачку старых серий можно, отжав галочку в соответствующих местах при запуске нового торрента. По возможности, желательно не удалять старые серии как можно дольше чтобы релизёр не столько продолжал раздавать старые серии, а смог сконцентрироваться на новых.

pb.wtf



Скачать Баскетс через торрент http://i1.imageban.ru/out/2016/01/23/b7c04b80e5cfc27883315356e2b88cbd.jpg Скачать фильм Баскетс через торрент бесплантно в хорошем качестве Описание: Новый проект Зака Галифианакиса и Луи Си Кея.История Чипа Баскетса - чудаковатого калифорнийца, мечтающего стать профессиональным ... 10 10 1
Торрент: Зарегистрирован [2019-08-31 19:43] · скачан: 1 раз
Статус: √ проверено
Размер: 17.57 GB
Как cкачать? Как скачать Баскетс через торрент | qTorrent

% Раздел Тема Автор DL S | L
Зарубежные сериалы [ 17.88 GB ] Баскетс / Baskets / Сезон: 4 / Серии: 1-10 из 10 [2019 WEBRip 1080p] [MVO] killermax2013 Скачать
1 | 0

28-11-2019 20:33  

Отключить всю рекламу на сайте

    Дорогой пользователь! Огромная просьба, поблагодарите релизера, оцените раздачу и оставьте свои комментарий, если Вы скачали Баскетс через торрент бесплатно! Внесите свою лепту в развитие PiratBit!
    Комментировать посты могут только пользователи прошедшие не сложную регистрацию
    Показать сообщения:    

    Баскетс через торрент
    Скачать бесплатно Баскетс
    Баскетс скачать торрент
    Баскетс смотреть онлайн
    Cкачать фильм Баскетс бесплатно
    Баскетс скачать торрент в хорошем качестве
    Баскетс смотреть онлайн бесплатно в хорошем качестве


    Вы не можете начинать темы
    Вы не можете отвечать на сообщения
    Вы не можете редактировать свои сообщения
    Вы не можете удалять свои сообщения
    Вы не можете голосовать в опросах
    Вы не можете прикреплять файлы к сообщениям
    Вы можете скачивать файлы