новый адрес
Ссылка на приватное зеркало всего за 1$. Внимание количество ограничено!!!

iTunes

1+1

iTunes

мы

iTunes

1

iTunes

Чернобыль

iTunes

Ральф против интернета

Лицензия

ПШазам

Лицензия

Оно 2

Лицензия

30
pack

Вам бонус

ВАЖНО

!!Акция!!

Alien_RageХит недели

RePack

Resident Evil 21

ИГРА 18+

pack

RePack

jed

!!Акция!!

Alien_Rage

RePack

fifa19

RePack

Assassins Creed: Odyssey

RePack

NEED FOR SPEED™ PAYBACK

3 сезон

9 сезон

Бесстыжие 9 сезон

Все сериалы

все сериалы на PB.wtf

RePack

FAR CRY 5
Ребята, катастрофически не хватает 1900р. для оплаты серверов за Октябрь (всвязи с блокировками трафик упал в 3 раза), 1-2р., выручайте.
  

Высшее общество / High Life (Клер Дени) [2018, фантастика, триллер, BDRip-AVC] DUB [iTunes] - ExKinoRay pb.wtf

Высшее общество через торрент pb.wtf

Раздают: 29 [ 37 KB/s ] Качают: 2 [ 97 KB/s ]
Размер: 1.39 GB | Добавлен: 5 мес. 17 д. назад | Торрент скачан:219 раз
Скачать  

18-06-2019 20:54 Высшее общество Скачать торрент  

Название: Высшее общество
Оригинальное название: High Life
Год выпуска: 2018
Жанр: Фантастика, триллер
Режиссер: Клер Дени
В ролях: Роберт Паттинсон, Жюльетт Бинош, Андре Бенджамин, Миа Гот, Агата Бузек, Ларс Айдингер, Клер Тран, Юэн Митчелл, Глория Обианьо, Скарлет Линдси

Описание: Где-то за пределами Солнечной системы экипаж космического корабля выполняет необычную миссию. Его цель - ближайшая к Земле черная дыра. На его борту команда молодых мужчин и женщин - преступников, приговоренных к пожизненному заключению. В их числе Монте, добровольно отказавшийся от любви и интимных отношений. Обманным путем его семя вживляется одной из космических узниц. Рождается девочка, которой суждено изменить жизнь героя...

rating

Страна: Великобритания, Франция, Германия, Польша
Студия: Alcatraz Films, Andrew Lauren Productions (ALP), Arte France Cinéma
Продолжительность: 01:53:02
Перевод: Дублированный | iTunes

БЕЗ КАКОЙ-ЛИБО РЕКЛАМЫ!

Формат: MKV
Качество: BDRip-AVC
Видео: MPEG-4 AVC, 720x390 (1.85:1), 23.976 fps, 1385 Kbps, 0.206 bit/pixel
Аудио: 48 kHz, AC3, 5.1, 384 Kbps | RUS |
Субтитры: Русские (Full), английские
Кроп сделан с учётом всех аспектов ратио

Aspect Ratio 1.33 : 1 (some scenes)
1.66 : 1
1.85 : 1 (final sequence)
General
Unique ID : 191284555718400207642895742013745731436 (0x8FE810BC760809588160572567DD176C)
Complete name : D:\High.Life.2018.BDRip.AVC.ExKinoRay.mkv
Format : Matroska
Format version : Version 2
File size : 1.39 GiB
Duration : 1 h 53 min
Overall bit rate : 1 766 kb/s
Movie name : High Life 2018 from ExKinoRay
Encoded date : UTC 2019-06-18 18:45:00
Writing application : mkvmerge v5.6.0 ('Kenya Kane') built on May 27 2012 16:44:04
Writing library : libebml v1.2.3 + libmatroska v1.3.0

Video
ID : 1
Format : AVC
Format/Info : Advanced Video Codec
Format profile : High@L4.1
Format settings, CABAC : Yes
Format settings, ReFrames : 12 frames
Codec ID : V_MPEG4/ISO/AVC
Duration : 1 h 53 min
Bit rate : 1 385 kb/s
Width : 720 pixels
Height : 390 pixels
Display aspect ratio : 1.85:1
Frame rate mode : Constant
Frame rate : 23.976 (24000/1001) FPS
Original frame rate : 23.976 (23976/1000) FPS
Color space : YUV
Chroma subsampling : 4:2:0
Bit depth : 8 bits
Scan type : Progressive
Bits/(Pixel*Frame) : 0.206
Stream size : 1.06 GiB (76%)
Title : Enigma
Writing library : x264 core 152 r2851 ba24899
Encoding settings : cabac=1 / ref=12 / deblock=1:-2:-2 / analyse=0x3:0x113 / me=umh / subme=10 / psy=1 / psy_rd=0.98:0.05 / mixed_ref=1 / me_range=32 / chroma_me=1 / trellis=2 / 8x8dct=1 / cqm=0 / deadzone=21,11 / fast_pskip=0 / chroma_qp_offset=-3 / threads=12 / lookahead_threads=3 / sliced_threads=0 / nr=0 / decimate=0 / interlaced=0 / bluray_compat=0 / constrained_intra=0 / bframes=12 / b_pyramid=2 / b_adapt=2 / b_bias=0 / direct=3 / weightb=1 / open_gop=0 / weightp=2 / keyint=240 / keyint_min=23 / scenecut=40 / intra_refresh=0 / rc=2pass / mbtree=0 / bitrate=1385 / ratetol=1.0 / qcomp=0.64 / qpmin=0 / qpmax=51 / qpstep=4 / cplxblur=20.0 / qblur=0.5 / ip_ratio=1.30 / pb_ratio=1.20 / aq=3:0.80
Default : Yes
Forced : No
Color range : Limited
Color primaries : BT.709
Transfer characteristics : BT.709
Matrix coefficients : BT.709

Audio
ID : 2
Format : AC-3
Format/Info : Audio Coding 3
Mode extension : CM (complete main)
Format settings, Endianness : Big
Codec ID : A_AC3
Duration : 1 h 53 min
Bit rate mode : Constant
Bit rate : 384 kb/s
Channel(s) : 6 channels
Channel positions : Front: L C R, Side: L R, LFE
Sampling rate : 48.0 kHz
Frame rate : 31.250 FPS (1536 spf)
Compression mode : Lossy
Stream size : 310 MiB (22%)
Title : iTunes
Language : Russian
Default : Yes
Forced : No

Text #1
ID : 3
Format : UTF-8
Codec ID : S_TEXT/UTF8
Codec ID/Info : UTF-8 Plain Text
Language : Russian
Default : No
Forced : No

Text #2
ID : 4
Format : UTF-8
Codec ID : S_TEXT/UTF8
Codec ID/Info : UTF-8 Plain Text
Language : English
Default : No
Forced : No

Menu
00:00:00.000 : en:Chapter 1
00:09:40.497 : en:Chapter 2
00:18:53.215 : en:Chapter 3
00:27:57.968 : en:Chapter 4
00:35:13.903 : en:Chapter 5
00:46:46.679 : en:Chapter 6
00:58:16.743 : en:Chapter 7
01:05:32.011 : en:Chapter 8
01:15:08.879 : en:Chapter 9
01:25:55.317 : en:Chapter 10
01:36:40.545 : en:Chapter 11
01:44:27.428 : en:Chapter 12
Релиз от:

Автор релиза: pb.wtf



Скачать Высшее общество через торрент https://i1.imageban.ru/out/2019/05/01/d9625b63932328a0b66c55f0e84ad475.png Скачать фильм Высшее общество через торрент бесплантно в хорошем качестве Описание: Где-то за пределами Солнечной системы экипаж космического корабля выполняет необычную миссию. Его цель - ближайшая к Земле ... 8 10 4
Info! Золотая раздача, скачанное не засчитывается.
Торрент: Зарегистрирован [2019-06-18 20:54] · скачан: 219 раз
Статус: √ проверено
Размер: 1.39 GB
Как cкачать? Как скачать Высшее общество через торрент | qTorrent

Отключить всю рекламу на сайте

25-06-2019 19:33 Высшее общество Скачать торрент  

На удивления , хороший фильм !pb.wtf



    Дорогой пользователь! Огромная просьба, поблагодарите релизера, оцените раздачу и оставьте свои комментарий, если Вы скачали Высшее общество через торрент бесплатно! Внесите свою лепту в развитие PiratBit!
    Комментировать посты могут только пользователи прошедшие не сложную регистрацию
    Показать сообщения:    

    Высшее общество через торрент
    Скачать бесплатно Высшее общество
    Высшее общество скачать торрент
    Высшее общество смотреть онлайн
    Cкачать фильм Высшее общество бесплатно
    Высшее общество скачать торрент в хорошем качестве
    Высшее общество смотреть онлайн бесплатно в хорошем качестве


    Вы не можете начинать темы
    Вы не можете отвечать на сообщения
    Вы не можете редактировать свои сообщения
    Вы не можете удалять свои сообщения
    Вы не можете голосовать в опросах
    Вы не можете прикреплять файлы к сообщениям
    Вы можете скачивать файлы