Ссылка на приватное зеркало нашего сайта всего за 1$. Внимание количество ограничено!!!

2 сезон

iTunes

1 сезон

1

2 сезон

2 сезон

iTunes

1 сезон

RePack

30

Ultimate

ВАЖНО

ИГРА 18+

pack

RePack

MK11
pack

Забери бонус

RePack

jed

!!Акция!!

Alien_Rage

RePack

fifa19

RePack

Assassins Creed: Odyssey

RePack

NEED FOR SPEED™ PAYBACK

4 сезон

9 сезон

Бесстыжие 9 сезон

Все сериалы

все сериалы на PB.wtf

RePack

FAR CRY 5
  

Джессика Джонс / Jessica Jones / Сезон: 3 / Серии: 1-13 из 13 (Ута Бризвитц, Розмари Родригез) [2019, фантастика, боевик, триллер, драма, криминал., WEBRip] MVO [LostFilm] pb.wtf

Джессика Джонс через торрент pb.wtf

Размер: 9.24 GB | Добавлен: 1 год 4 мес. назад | Торрент скачан:29 раз
Скачать  

19-06-2019 04:22 Джессика Джонс Скачать торрент  

Джессика Джонс / Jessica Jones Год выпуска: 2019
Страна: США
Жанр: фантастика, боевик, триллер, драма, криминал
Продолжительность: ~ 00:52:00
Перевод: Профессиональный (многоголосый закадровый) | LostFilm
Субтитры: Английские

Режиссёр: Ута Бризвитц, Розмари Родригез

В ролях:

Кристен Риттер, Дэвид Теннант, Майк Колтер, Рэйчел Тейлор, Кэрри-Энн Мосс, Эйка Дарвилл, Эрин Мориарти, Уил Трэвэл, Сьюзи Абромейт, Фил Каппадора

Описание:

После трагических событий, оборвавших короткую супергеройскую карьеру Джессики Джонс, девушка пытается восстановить свою личную жизнь и свою карьеру частного детектива, расследуя таинственную активность людей со сверхспособностями в Нью-Йорке.

rating


Исходник: Marvels.Jessica.Jones.S03.1080p.NF.WEB.DDP5.1.Atmos.x264-NTG

Качество: WEBRip
Формат: AVI

Видео: XviD, 720x400, 23,976 fps, ~ 1599 kbps
Аудио 1: 48 kHz, AC3 2 ch, ~192 kbps|LostFilm|
Аудио 2: 48 kHz, AC3 2 ch, ~192 kbps
Обрезка заставки и синхронизация: Игорь_Викторович
Format : AVI
Format/Info : Audio Video Interleave
File size : 742 MiB
Duration : 51mn 55s
Overall bit rate : 1 998 Kbps
Movie name : Джессика Джонс 3х01: Идеальный бургер
Director : Бёдвар (WEBRip 400p)
Writing application : VirtualDubModRus 1.5.10.2 (build 2542/release)
Comment : 18.06.2019

Video
ID : 0
Format : MPEG-4 Visual
Format profile : Advanced Simple@L5
Format settings, BVOP : 1
Format settings, QPel : No
Format settings, GMC : No warppoints
Format settings, Matrix : Default (MPEG)
Codec ID : XVID
Codec ID/Hint : XviD
Duration : 51mn 55s
Bit rate : 1 600 Kbps
Width : 720 pixels
Height : 400 pixels
Display aspect ratio : 16:9
Frame rate : 23.976 (24000/1001) fps
Color space : YUV
Chroma subsampling : 4:2:0
Bit depth : 8 bits
Scan type : Progressive
Compression mode : Lossy
Bits/(Pixel*Frame) : 0.232
Stream size : 594 MiB (80%)
Writing library : XviD 67

Audio #1
ID : 1
Format : AC-3
Format/Info : Audio Coding 3
Mode extension : CM (complete main)
Format settings, Endianness : Big
Codec ID : 2000
Duration : 51mn 55s
Bit rate mode : Constant
Bit rate : 192 Kbps
Channel(s) : 2 channels
Channel positions : Front: L R
Sampling rate : 48.0 KHz
Frame rate : 31.250 fps (1536 spf)
Compression mode : Lossy
Stream size : 71.3 MiB (10%)
Alignment : Split accross interleaves
Interleave, duration : 42 ms (1.00 video frame)
Interleave, preload duratio : 500 ms

Audio #2
ID : 2
Format : AC-3
Format/Info : Audio Coding 3
Mode extension : CM (complete main)
Format settings, Endianness : Big
Codec ID : 2000
Duration : 51mn 55s
Bit rate mode : Constant
Bit rate : 192 Kbps
Channel(s) : 2 channels
Channel positions : Front: L R
Sampling rate : 48.0 KHz
Frame rate : 31.250 fps (1536 spf)
Compression mode : Lossy
Stream size : 71.3 MiB (10%)
Alignment : Split accross interleaves
Interleave, duration : 42 ms (1.00 video frame)
Interleave, preload duratio : 500 ms
скриншот  скриншот  скриншот  скриншот  
Внимание! Раздача ведётся путём добавления новых серий; при каждом добавлении создаётся новый торрент. Чтобы начать докачку новой серии,пользователям необходимо сделать следующее:
(1) остановить скачивание,
(2) удалить старый торрент у себя из клиента (старые серии удалять не надо),
(3) скачать новый торрент и запустить его у себя в клиенте вместо старого, при этом указать клиенту путь в старую папку куда и должнопроисходить скачивание новых серий.

Ваш клиент при этом должен произвести хеширование (проверку) старой папки (если не производит сам - помогите ему сделать это), и будет докачивать только те серии
которых у вас ещё нет. Старые серии при этом не удаляются, а продолжают раздаваться!

Eсли вы уже удалили старые серии, то предотвратить повторную закачку старых серий можно, отжав галочку в соответствующих местах при запуске нового торрента.

По возможности, желательно не удалять старые серии как можно дольше чтобы релизёр не столько продолжал раздавать старые серии, а смог сконцентрироваться на новых.
pb.wtf



Скачать Джессика Джонс через торрент https://b.radikal.ru/b09/1906/60/c13dc403ce35.png Скачать фильм Джессика Джонс через торрент бесплантно в хорошем качестве Описание: После трагических событий, оборвавших короткую супергеройскую карьеру Джессики Джонс, девушка пытается восстановить свою личную ... 8.7 10 3
Торрент: Зарегистрирован [2019-07-15 11:27] · скачан: 29 раз
Статус: √ проверено
Размер: 9.24 GB
Как cкачать? Как скачать Джессика Джонс через торрент | qTorrent

% Раздел Тема Автор DL S | L
Зарубежные сериалы [ 41.21 GB ] Джессика Джонс / Marvel’s Jessica Jones / Сезон: 3 / Серии: 1-13 из 13 [2019 WEBRip 720p] MVO [NewStudio] bober100 Скачать
1 | 0
Зарубежные сериалы [ 86.24 GB ] Джессика Джонс / Marvel’s Jessica Jones / Сезон: 3 / Серии: 1-13 из 13 [2019 WEBRip 1080p] MVO [NewStudio] bober100 Скачать
1 | 0
Зарубежные сериалы [ 78.51 GB ] Джессика Джонс / Jessica Jones / Сезон: 3 / Серии: 1-13 из 13 [2019 UHD WEB-DL 2160p] MVO [LostFilm] sheker187 Скачать
1 | 0
Зарубежные сериалы [ 77.62 GB ] Джессика Джонс / Jessica Jones / Сезон: 3 / Серии: 1-13 из 13 [2019 UHD WEB-DL 2160p] MVO [TVShows] sheker187 Скачать
1 | 0
Зарубежные сериалы [ 9.24 GB ] Джессика Джонс / Jessica Jones / Сезон: 3 / Серии: 1-13 из 13 [2019 WEBRip] MVO [TVShows] bober100 Скачать
1 | 0
Зарубежные сериалы [ 26.52 GB ] Джессика Джонс / Jessica Jones / Сезон: 3 / Серии: 1-13 из 13 [2019 WEB-DL 1080p] [MVO] killermax2013 Скачать
1 | 0
Зарубежные сериалы [ 7.79 GB ] Джессика Джонс / Jessica Jones / Сезон: 3 / Серии: 1-13 из 13 [2019 WEBRip] [MVO] killermax2013 Скачать
1 | 0

28-11-2019 20:33  

Отключить всю рекламу на сайте

    Дорогой пользователь! Огромная просьба, поблагодарите релизера, оцените раздачу и оставьте свои комментарий, если Вы скачали Джессика Джонс через торрент бесплатно! Внесите свою лепту в развитие PiratBit!
    Комментировать посты могут только пользователи прошедшие не сложную регистрацию
    Показать сообщения:    

    Джессика Джонс через торрент
    Скачать бесплатно Джессика Джонс
    Джессика Джонс скачать торрент
    Джессика Джонс смотреть онлайн
    Cкачать фильм Джессика Джонс бесплатно
    Джессика Джонс скачать торрент в хорошем качестве
    Джессика Джонс смотреть онлайн бесплатно в хорошем качестве


    Вы не можете начинать темы
    Вы не можете отвечать на сообщения
    Вы не можете редактировать свои сообщения
    Вы не можете удалять свои сообщения
    Вы не можете голосовать в опросах
    Вы не можете прикреплять файлы к сообщениям
    Вы можете скачивать файлы