Ссылка на приватное зеркало нашего сайта всего за 1$. Внимание количество ограничено!!!

2 сезон

iTunes

1 сезон

1

2 сезон

2 сезон

iTunes

1 сезон

RePack

30

Новинка

ВАЖНО

ИГРА 18+

pack

RePack

MK11
pack

Забери бонус

RePack

jed

!!Акция!!

Alien_Rage

RePack

fifa19

RePack

Assassins Creed: Odyssey

RePack

NEED FOR SPEED™ PAYBACK

4 сезон

9 сезон

Бесстыжие 9 сезон

Все сериалы

все сериалы на PB.wtf

RePack

FAR CRY 5
  

Эйфория / Euphoria / Сезон: 1 / Серии: 1-8 из 8 ( Сэм Левинсон) [2019, драма, WEB-DL 1080p] MVO [Novamedia] pb.wtf

Эйфория через торрент pb.wtf

Размер: 29.83 GB | Добавлен: 1 год 3 мес. назад | Торрент скачан:106 раз
Скачать  

19-06-2019 04:36 Эйфория Скачать торрент  


Эйфория | Euphoria Год выпуска: 2019
Страна: США
Жанр: драма
Продолжительность: 00:54:00 мин.
Перевод: Профессиональный (многоголосый закадровый) | Novamedia
Субтитры: Русские (Forced, Full)

Режиссёры: Сэм Левинсон, Пиппа Бьянко, Августин Фриззелл, Дженнифер Моррисон

В ролях: Зендея, Мод Апатоу, Ангус Клауд, Эрик Дэйн, Алекса Деми, Джейкоб Элорди, Барби Феррейра, Ника Уильямс, Сторм Рейд, Хантер Шэфер, Элджи Смит, Сидни Свини

Описание: Продюсерский проект певца Дрейка с любимицей подростков Зендеей в главной роли. «Эйфория» — откровенная молодежная драма, главные герои которой постигают жизнь через наркотики, секс, травмы и социальные медиа. В центре истории — 17-летняя Ру Беннетт (Зендея), вернувшаяся в родной дом после лечения в реабилитационной клинике. Не теряя времени, она опять берется за старые привычки — наркотики и тусовки. Однако появление в городе девушки Джулс становится для Ру знаком надежды. Созданием «Эйфории» руководил автор «Нации убийц» Сэм Левинсон.




Качество: WEB-DL 1080p | AMAZON
Контейнер: MKV

Видео: AVC, 1920x1080 (16:9), 23.976 fps, ~8000 kbps
Аудио №1: AC3 5.1, 48 kHz, 640 kbps
Аудио №2: E-AC3 5.1, 48 kHz, 640 kbps


Релиз: Wilmots@EniaHD
01. Пилот / Pilot
General
Unique ID : 201283130310189397625631045313498507233 (0x976DB8861D8D5B78ADCB6297BA84E7E1)
Complete name : Euphoria.US.S01.1080p.AMZN.WEB-DL.DDP5.1.H.264-EniaHD\Euphoria.US.S01E01.Pilot.1080p.AMZN.WEB-DL.DDP5.1.H.264-EniaHD.mkv
Format : Matroska
Format version : Version 4
File size : 3.47 GiB
Duration : 53 min 39 s
Overall bit rate : 9 266 kb/s
Movie name : Euphoria (Pilot) - EniaHD
Encoded date : UTC 2019-06-17 14:59:45
Writing application : mkvmerge v34.0.0 ('Sight and Seen') 64-bit
Writing library : libebml v1.3.7 + libmatroska v1.5.0

Video
ID : 1
Format : AVC
Format/Info : Advanced Video Codec
Format profile : High@L4
Format settings : CABAC / 4 Ref Frames
Format settings, CABAC : Yes
Format settings, ReFrames : 4 frames
Codec ID : V_MPEG4/ISO/AVC
Duration : 53 min 39 s
Bit rate mode : Constant
Bit rate : 7 984 kb/s
Nominal bit rate : 10 000 kb/s
Width : 1 920 pixels
Height : 1 080 pixels
Display aspect ratio : 16:9
Frame rate mode : Constant
Frame rate : 23.976 (24000/1001) FPS
Color space : YUV
Chroma subsampling : 4:2:0
Bit depth : 8 bits
Scan type : Progressive
Bits/(Pixel*Frame) : 0.161
Stream size : 2.99 GiB (86%)
Default : Yes
Forced : No
Color range : Limited
Color primaries : BT.709
Transfer characteristics : BT.709
Matrix coefficients : BT.709

Audio #1
ID : 2
Format : AC-3
Format/Info : Audio Coding 3
Commercial name : Dolby Digital
Codec ID : A_AC3
Duration : 53 min 39 s
Bit rate mode : Constant
Bit rate : 640 kb/s
Channel(s) : 6 channels
Channel layout : L R C LFE Ls Rs
Sampling rate : 48.0 kHz
Frame rate : 31.250 FPS (1536 SPF)
Bit depth : 16 bits
Compression mode : Lossy
Stream size : 246 MiB (7%)
Title : Novamedia
Language : Russian
Service kind : Complete Main
Default : Yes
Forced : No

Audio #2
ID : 3
Format : E-AC-3
Format/Info : Enhanced AC-3
Commercial name : Dolby Digital Plus
Codec ID : A_EAC3
Duration : 53 min 39 s
Bit rate mode : Constant
Bit rate : 640 kb/s
Channel(s) : 6 channels
Channel layout : L R C LFE Ls Rs
Sampling rate : 48.0 kHz
Frame rate : 31.250 FPS (1536 SPF)
Compression mode : Lossy
Stream size : 246 MiB (7%)
Language : English
Service kind : Complete Main
Default : No
Forced : No

Text #1
ID : 4
Format : UTF-8
Codec ID : S_TEXT/UTF8
Codec ID/Info : UTF-8 Plain Text
Duration : 20 min 0 s
Bit rate : 5 b/s
Count of elements : 17
Stream size : 873 Bytes (0%)
Title : Forced
Language : Russian
Default : Yes
Forced : Yes

Text #2
ID : 5
Format : UTF-8
Codec ID : S_TEXT/UTF8
Codec ID/Info : UTF-8 Plain Text
Duration : 51 min 40 s
Bit rate : 83 b/s
Count of elements : 703
Stream size : 31.7 KiB (0%)
Title : Full
Language : Russian
Default : No
Forced : No
скриншот  скриншот  скриншот  

скриншот  скриншот  скриншот  
Когда раздача ведётся путём добавления новых серий, при каждом добавлении создётся новый торрент. Чтобы начать докачку новой серии, пользователям необходимо сделать следующее:
(1) остановить скачивание,
(2) удалить старый торрент у себя из клиента (старые серии удалять не надо),
(3) скачать новый торрент и запустить его у себя в клиенте вместо старого, при этом указать клиенту путь в старую папку, куда и должно происходить скачивание новых серий.
Ваш клиент при этом должен произвести хеширование (проверку) старой папки (если не производит сам - помогите ему сделать это), и будет докачивать только те серии, которых у вас ещё нет. Старые серии при этом не удаляются, а продолжают раздаваться!
Eсли вы уже удалили старые серии, то предотвратить повторную закачку старых серий можно, отжав галочку в соответсвующих местах при запуске нового торрента. По возможности, желательно не удалять старые серии как можно дольше, чтобы релизёр не столько продолжал раздавать старые серии, а смог сконцентрироваться на новых.
В сериале присутствуют откровенные сексуальные сцены! 18+pb.wtf



Скачать Эйфория через торрент https://b.radikal.ru/b18/1908/d0/64c1c43e78bd.png Скачать фильм Эйфория через торрент бесплантно в хорошем качестве Описание: Продюсерский проект певца Дрейка с любимицей подростков Зендеей в главной роли. «Эйфория» — откровенная молодежная драма, главные ... 8.7 10 12
Торрент: Зарегистрирован [2019-08-06 07:51] · скачан: 106 раз
Статус: √ проверено
Размер: 29.83 GB
Как cкачать? Как скачать Эйфория через торрент | qTorrent

% Раздел Тема Автор DL S | L
Зарубежные сериалы [ 3.77 GB ] Эйфория / Euphoria / Сезон: 1 / Серии: 1-8 из 8 [2019 WEB-DLRip-AVC] MVO [Novamedia] bober100 Скачать
1 | 0
Зарубежные сериалы [ 15.16 GB ] Эйфория / Euphoria / Сезон: 1 / Серии: 1-8 из 8 [2019 WEB-DL 720p] MVO [TVShows] bober100 Скачать
1 | 0
Зарубежные сериалы [ 6.32 GB ] Эйфория / Euphoria / Сезон: 1 / Серии: 1-8 из 8 [2019 WEB-DLRip] MVO [Novamedia] bober100 Скачать
2 | 0
Зарубежные сериалы [ 7.67 GB ] Эйфория / Euphoria / Сезон: 1 / Серии: 1-8 из 8 [2019 WEB-DLRip] [MVO] killermax2013 Скачать
1 | 0
Зарубежные сериалы [ 29.75 GB ] Эйфория / Euphoria / Сезон: 1 / Серии: 1-8 из 8 [2019 WEB-DL 1080p] [MVO] killermax2013 Скачать
1 | 0

28-11-2019 20:33  

Отключить всю рекламу на сайте

06-08-2019 08:37 Эйфория Скачать торрент  

Ну по скриншотам там далеко не драма pb.wtf



    Дорогой пользователь! Огромная просьба, поблагодарите релизера, оцените раздачу и оставьте свои комментарий, если Вы скачали Эйфория через торрент бесплатно! Внесите свою лепту в развитие PiratBit!
    Комментировать посты могут только пользователи прошедшие не сложную регистрацию
    Показать сообщения:    

    Эйфория через торрент
    Скачать бесплатно Эйфория
    Эйфория скачать торрент
    Эйфория смотреть онлайн
    Cкачать фильм Эйфория бесплатно
    Эйфория скачать торрент в хорошем качестве
    Эйфория смотреть онлайн бесплатно в хорошем качестве


    Вы не можете начинать темы
    Вы не можете отвечать на сообщения
    Вы не можете редактировать свои сообщения
    Вы не можете удалять свои сообщения
    Вы не можете голосовать в опросах
    Вы не можете прикреплять файлы к сообщениям
    Вы можете скачивать файлы