Ссылка на приватное зеркало нашего сайта всего за 1$. Внимание количество ограничено!!!

2 сезон

iTunes

1 сезон

1

iTunes

iTunes

iTunes

1 сезон

RePack

30

ИГРА 18+

pack

ВАЖНО

!!Акция!!

Alien_RageХит недели

RePack

MK11
pack

Забери бонус

RePack

jed

!!Акция!!

Alien_Rage

RePack

fifa19

RePack

Assassins Creed: Odyssey

RePack

NEED FOR SPEED™ PAYBACK

4 сезон

9 сезон

Бесстыжие 9 сезон

Все сериалы

все сериалы на PB.wtf

RePack

FAR CRY 5
  

Сын отца народов / Серии: 1-12 из 12 (Сергей Гинзбург, Сергей Щербин) [2013, Биография, исторический, HDTV 1080i] pb.wtf

Сын отца народов через торрент pb.wtf

Размер: 34.08 GB | Добавлен: 1 год 4 мес. назад | Торрент скачан:31 раз
Скачать  

19-06-2019 05:55 Сын отца народов Скачать торрент  

Сын отца народов Год выпуска: 2013
Страна: Россия
Жанр: Биография, исторический
Продолжительность: ~ 00:47:00 серия
Перевод: Не требуется
Субтитры: отсутствуют

Режиссер: Сергей Гинзбург, Сергей Щербин

rating

В ролях: Гела Месхи, Василий Прокопьев, Анатолий Дзиваев, Сергей Газаров, Надежда Михалкова, Илья Ермолов, Алексей Вертков, Александр Никольский (II), Анатолий Гущин, Евгений Сангаджиев, Кристина Пакарина, Мария Жиганова, Артём Осипов, Светлана Колпакова, Юрий Маслак, Марьяна Спивак, Анна Кирина, Дмитрий Абазовик, Иван Суханов, Максим Сапрыкин (II), Мария Андреева

Описание: О трагической судьбе сына вождя народа. Жизнь Василия Сталина изменилась коренным образом после смерти его отца, прославившегося как в России так и за рубежом.

Качество: HDTV 1080i
Формат: TS

Видео: AVC, ~ 8000 Кбит/с, 1920x1080
Аудио: MP2, 2 ch, 224 Кбит/с
скриншот  скриншот  скриншот  скриншот  скриншот  

Общее
Идентификатор : 1 (0x1)
Полное имя : D:\Syn.otca.narodov.2013.HDTV.(1080i).BigFANGRoup\Syn.otca.narodov.(01.seriya.).2013.HDTV.(1080i).Shuriman.ts
Формат : MPEG-TS
Размер файла : 2,99 Гбайт
Продолжительность : 49 м. 44 с.
Режим общего битрейта : Переменный
Общий поток : 8607 Кбит/сек

Видео
Идентификатор : 1902 (0x76E)
Идентификатор меню : 1 (0x1)
Формат : AVC
Формат/Информация : Advanced Video Codec
Профиль формата : High@L4
Параметр CABAC формата : Да
Параметр RefFrames формата : 3 кадра
Идентификатор кодека : 27
Продолжительность : 49 м. 44 с.
Битрейт : 7956 Кбит/сек
Ширина : 1920 пикселей
Высота : 1080 пикселей
Соотношение сторон : 16:9
Частота кадров : 25,000 кадров/сек
Стандарт вещания : Component
Цветовое пространство : YUV
Субдискретизация насыщенности : 4:2:0
Битовая глубина : 8 бит
Тип развёртки : Чересстрочная
Метод сохранения типа развёртки : Раздельные поля
Порядок развёртки : Верхнее поле первое
Бит/(Пиксели*Кадры) : 0.153
Размер потока : 2,76 Гбайт (92%)
Цветовой диапазон : Limited
Основные цвета : BT.709
Характеристики трансфера : BT.709
Коэффициенты матрицы : BT.709

Аудио
Идентификатор : 2902 (0xB56)
Идентификатор меню : 1 (0x1)
Формат : MPEG Audio
Версия формата : Version 1
Профиль формата : Layer 2
Идентификатор кодека : 3
Продолжительность : 49 м. 44 с.
Вид битрейта : Постоянный
Битрейт : 224 Кбит/сек
Каналы : 2 канала
Частота : 48,0 КГц
Метод сжатия : С потерями
Размер потока : 79,7 Мбайт (3%)
Язык : Russian

Текст
Идентификатор : 33 (0x21)-888
Идентификатор меню : 1 (0x1)
Формат : Teletext Subtitle
Язык : Russian

pb.wtf



Скачать Сын отца народов через торрент https://b.radikal.ru/b17/1906/19/dee4c70fabee.jpg Скачать фильм Сын отца народов через торрент бесплантно в хорошем качестве Описание: О трагической судьбе сына вождя народа. Жизнь Василия Сталина изменилась коренным образом после смерти его отца, прославившегося ... 10 10 4
Info! Золотая раздача, скачанное не засчитывается.
Торрент: Зарегистрирован [2019-06-19 05:55] · скачан: 31 раз
Статус: √ проверено
Размер: 34.08 GB
Как cкачать? Как скачать Сын отца народов через торрент | qTorrent

% Раздел Тема Автор DL S | L
Наши сериалы [ 15.84 GB ] Сын отца народов / Сезон: 1 / Серии: 1-12 из 12 [2013 2xDVD9] R5 voovaz Скачать
1 | 1

28-11-2019 20:33  

Отключить всю рекламу на сайте

    Дорогой пользователь! Огромная просьба, поблагодарите релизера, оцените раздачу и оставьте свои комментарий, если Вы скачали Сын отца народов через торрент бесплатно! Внесите свою лепту в развитие PiratBit!
    Комментировать посты могут только пользователи прошедшие не сложную регистрацию
    Показать сообщения:    

    Сын отца народов через торрент
    Скачать бесплатно Сын отца народов
    Сын отца народов скачать торрент
    Сын отца народов смотреть онлайн
    Cкачать фильм Сын отца народов бесплатно
    Сын отца народов скачать торрент в хорошем качестве
    Сын отца народов смотреть онлайн бесплатно в хорошем качестве


    Вы не можете начинать темы
    Вы не можете отвечать на сообщения
    Вы не можете редактировать свои сообщения
    Вы не можете удалять свои сообщения
    Вы не можете голосовать в опросах
    Вы не можете прикреплять файлы к сообщениям
    Вы можете скачивать файлы