2 сезон

iTunes

1 сезон

1

iTunes

iTunes

iTunes

1 сезон

RePack

30

ИГРА 18+

pack

ВАЖНО

!!Акция!!

Alien_RageХит недели

RePack

MK11
pack

Забери бонус

RePack

jed

!!Акция!!

Alien_Rage

RePack

fifa19

RePack

Assassins Creed: Odyssey

RePack

NEED FOR SPEED™ PAYBACK

4 сезон

9 сезон

Бесстыжие 9 сезон

Все сериалы

все сериалы на PB.wtf

RePack

FAR CRY 5
  

Ведьма / Сезон: 1 / Серии: 1-6 из 16 (Сергей Борчуков) [2019, Мелодрама, WEB-DL 1080p] pb.wtf

Ведьма через торрент pb.wtf

Размер: 6.3 GB | Добавлен: 1 год 4 мес. назад | Торрент скачан:13 раз
Скачать  

19-06-2019 11:42 Ведьма Скачать торрент  

Ведьма
Год выпуска: 2019
Страна: Россия
Жанр: Мелодрама
Продолжительность: ~ 00:52:00
Субтитры: отсутствуют

Режиссер: Сергей Борчуков



В ролях:

Анастасия Стежко, Илья Акинтьев, Глафира Тарханова, Митя Лабуш, Елена Дробышева, Борис Смолкин, Андрей Барило, Валерий Афанасьев, Ольга Гришина, Мария Тарасова (II)

Описание:

Невероятные события происходят в глухой деревне. Один тревожный день меняет судьбы всех её жителей. Все началось с появления таинственной незнакомки. Кузнец Роман спасает тонущую в реке девушку. Девушка не помнит ничего о себе и своем прошлом. Кто она? Русалка, призрак, прекрасный ангел или может быть… ведьма? По деревне начинают распространяться слухи о том, что в доме Романа завелась нечистая сила.

Качество: WEB-DL 1080p
Формат: MKV

Видео: MPEG-4 AVC, ~ 3050 Кбит/с, 1920x1080
Аудио: Русский (AC3, 2 ch, 192 Кбит/с)
скриншот  скриншот  скриншот  скриншот  

Общее
Уникальный идентификатор : 252214297983475015471261735848851800039 (0xBDBEB4F6ABBAB749A2F08C27FF27FFE7)
Полное имя : D:\Ведьма.2019.WEB-DL 1080p. Files-x\01. Ведьма.2019.WEB-DL 1080p. Files-x.mkv
Формат : Matroska
Версия формата : Version 2
Размер файла : 1,19 Гбайт
Продолжительность : 51 м. 25 с.
Общий поток : 3313 Кбит/сек
Дата кодирования : UTC 2019-06-18 09:51:53
Программа кодирования : mkvmerge v7.8.0 ('River Man') 32bit built on Apr 3 2015 12:11:22
Библиотека кодирования : libebml v1.3.1 + libmatroska v1.4.2

Видео
Идентификатор : 1
Формат : AVC
Формат/Информация : Advanced Video Codec
Профиль формата : High@L4
Параметр CABAC формата : Да
Параметр RefFrames формата : 3 кадра
Идентификатор кодека : V_MPEG4/ISO/AVC
Продолжительность : 51 м. 25 с.
Битрейт : 3055 Кбит/сек
Ширина : 1920 пикселей
Высота : 1080 пикселей
Соотношение сторон : 16:9
Режим частоты кадров : Постоянный
Частота кадров : 25,000 кадров/сек
Цветовое пространство : YUV
Субдискретизация насыщенности : 4:2:0
Битовая глубина : 8 бит
Тип развёртки : Прогрессивная
Бит/(Пиксели*Кадры) : 0.059
Размер потока : 1,10 Гбайт (92%)
Default : Да
Forced : Нет
Цветовой диапазон : Limited
Основные цвета : BT.709
Характеристики трансфера : BT.709
Коэффициенты матрицы : BT.709

Аудио
Идентификатор : 2
Формат : AC-3
Формат/Информация : Audio Coding 3
Расширение режима : CM (complete main)
Параметр Endianness формата : Big
Идентификатор кодека : A_AC3
Продолжительность : 51 м. 25 с.
Вид битрейта : Постоянный
Битрейт : 192 Кбит/сек
Каналы : 2 канала
Расположение каналов : Front: L R
Частота : 44,1 КГц
Частота кадров : 28,711 кадров/сек (1536 spf)
Метод сжатия : С потерями
Размер потока : 70,6 Мбайт (6%)
Default : Да
Forced : Нет

Внимание! Раздача ведётся путём добавления новых серий; при каждом добавлении создаётся новый торрент. Чтобы начать докачку новой серии,пользователям необходимо сделать следующее:
(1) остановить скачивание,
(2) удалить старый торрент у себя из клиента (старые серии удалять не надо),
(3) скачать новый торрент и запустить его у себя в клиенте вместо старого, при этом указать клиенту путь в старую папку куда и должнопроисходить скачивание новых серий.

Ваш клиент при этом должен произвести хеширование (проверку) старой папки (если не производит сам - помогите ему сделать это), и будет докачивать только те серии
которых у вас ещё нет. Старые серии при этом не удаляются, а продолжают раздаваться!

Eсли вы уже удалили старые серии, то предотвратить повторную закачку старых серий можно, отжав галочку в соответствующих местах при запуске нового торрента.

По возможности, желательно не удалять старые серии как можно дольше чтобы релизёр не столько продолжал раздавать старые серии, а смог сконцентрироваться на новых.
pb.wtf



Скачать Ведьма через торрент https://i110.fastpic.ru/big/2019/0617/1a/d5e7efa0057705b96781cf89a69d541a.jpg Скачать фильм Ведьма через торрент бесплантно в хорошем качестве Описание: Невероятные события происходят в глухой деревне. Один тревожный день меняет судьбы всех её жителей. Все началось с появления ... 10 10 2
Торрент: Зарегистрирован [2019-06-20 00:32] · скачан: 13 раз
Статус: √ проверено
Размер: 6.3 GB
Как cкачать? Как скачать Ведьма через торрент | qTorrent

28-11-2019 20:33  

Отключить всю рекламу на сайте

    Дорогой пользователь! Огромная просьба, поблагодарите релизера, оцените раздачу и оставьте свои комментарий, если Вы скачали Ведьма через торрент бесплатно! Внесите свою лепту в развитие PiratBit!
    Комментировать посты могут только пользователи прошедшие не сложную регистрацию
    Показать сообщения:    

    Ведьма через торрент
    Скачать бесплатно Ведьма
    Ведьма скачать торрент
    Ведьма смотреть онлайн
    Cкачать фильм Ведьма бесплатно
    Ведьма скачать торрент в хорошем качестве
    Ведьма смотреть онлайн бесплатно в хорошем качестве


    Вы не можете начинать темы
    Вы не можете отвечать на сообщения
    Вы не можете редактировать свои сообщения
    Вы не можете удалять свои сообщения
    Вы не можете голосовать в опросах
    Вы не можете прикреплять файлы к сообщениям
    Вы можете скачивать файлы