Мега распродажа FORZA HORIZON 4 ULTIMATE+ВСЕ DLC+ОНЛАЙН всего за 499р. 349 руб. (супер цена). Внимание количество ограничено!!!

iTunes

1+1

iTunes

мы

iTunes

1

1 сезон

Чернобыль

1 сезон

Ральф против интернета

Лицензия

ПШазам

8 сезон

Игра престолов

Лицензия

30
pack

ВАЖНО

!!Акция!!

Alien_RageХит недели

RePack

Resident Evil 21

ИГРА 18+

pack

RePack

Metro:Exodus

!!Акция!!

Alien_Rage

RePack

fifa19

RePack

Assassins Creed: Odyssey

RePack

NEED FOR SPEED™ PAYBACK

3 сезон

9 сезон

Бесстыжие 9 сезон

Все сериалы

все сериалы на PB.wtf

RePack

FAR CRY 5
Ребята, катастрофически не хватает 2730р. для оплаты серверов за ИЮНЬ (всвязи с блокировками трафик упал в 3 раза), 1-2р., выручайте.
  

Что/если / What/If / Сезон: 1 / Серии: 1-2 из 10 (Филлип Нойс, Джессика Борсицки, Фернандо Коимбра) [2019, триллер, WEB-DL 1080p] MVO [TVShows] pb.wtf

Что через торрент pb.wtf

Размер: 3.42 GB | Добавлен: 27 д. назад | Торрент скачан:7 раз
Скачать  

19-06-2019 18:51 Что Скачать торрент  

Что/если / What/If Год выпуска: 2019
Страна: США
Жанр: триллер
Продолжительность: ~ 00:55:00
Перевод: Профессиональный (многоголосый закадровый) | TVShows
Субтитры: English

Режиссёр: Филлип Нойс, Джессика Борсицки, Фернандо Коимбра

В ролях: Джейн Леви, Блейк Дженнер, Кит Пауэрс, Саманта Мари Уэр, Хуан Кастано, Рене Зеллвегер, Дэйв Эннэйбл, Саамер Усмани, Луис Хертэм, Даниэлла Пинеда и др.

Описание: Состоятельная немолодая женщина Анна делает паре молодоженов из Сан-Франциско, отчаянно нуждающихся в деньгах, крайне рискованное предложение. За их согласием следует целая вереница событий, которая приводит к самым неожиданным результатам. В центре событий оказываются не только главные герои, но и их близкие люди, друзья и коллеги.
Анна мастерски манипулирует людьми, и в итоге изначально положительные герои совершают некрасивые, а порой и подлые поступки.

rating


Качество: WEB-DL 1080p
Формат: MKV

Видео: AVC, 1920 x 1080 (1.778), 23.976 fps, ~3480 kbps
Аудио Rus: AC-3, 48 kHz, 6 ch, 384 kbps |TVShows|
Аудио Eng: E-AC-3, 48 kHz, 6 ch, 640 kbps |Original|
General
Unique ID : 194714101281950668470158646707719958336 (0x927C9263252C39A66B060C9AAB86EF40)
Complete name : C:\Users\Desktop\What.if.S01.1080p.TVShows\What.if.S01E01.1080p.TVShows.mkv
Format : Matroska
Format version : Version 4 / Version 2
File size : 1.77 GiB
Duration : 56 min 59 s
Overall bit rate mode : Variable
Overall bit rate : 4 440 kb/s
Encoded date : UTC 2019-06-07 12:16:09
Writing application : mkvmerge v33.1.0 ('Primrose') 64-bit
Writing library : libebml v1.3.7 + libmatroska v1.5.0

Video
ID : 1
Format : AVC
Format/Info : Advanced Video Codec
Format profile : Main@L4
Format settings : CABAC / 3 Ref Frames
Format settings, CABAC : Yes
Format settings, ReFrames : 3 frames
Codec ID : V_MPEG4/ISO/AVC
Duration : 56 min 59 s
Bit rate mode : Variable
Bit rate : 3 480 kb/s
Maximum bit rate : 5 220 kb/s
Width : 1 920 pixels
Height : 1 080 pixels
Display aspect ratio : 16:9
Frame rate mode : Constant
Frame rate : 23.976 (24000/1001) FPS
Color space : YUV
Chroma subsampling : 4:2:0
Bit depth : 8 bits
Scan type : Progressive
Bits/(Pixel*Frame) : 0.070
Stream size : 1.36 GiB (77%)
Writing library : x264 core 148 r2715 7e75228
Encoding settings : cabac=1 / ref=3 / deblock=1:0:0 / analyse=0x1:0x111 / me=umh / subme=10 / psy=1 / psy_rd=1.00:0.00 / mixed_ref=1 / me_range=24 / chroma_me=1 / trellis=2 / 8x8dct=0 / cqm=0 / deadzone=21,11 / fast_pskip=1 / chroma_qp_offset=-2 / threads=8 / lookahead_threads=1 / sliced_threads=0 / nr=0 / decimate=1 / interlaced=0 / bluray_compat=0 / stitchable=1 / constrained_intra=0 / bframes=2 / b_pyramid=0 / b_adapt=2 / b_bias=0 / direct=3 / weightb=1 / open_gop=0 / weightp=2 / keyint=48 / keyint_min=25 / scenecut=0 / intra_refresh=0 / rc_lookahead=48 / rc=2pass / mbtree=1 / bitrate=3480 / ratetol=1.0 / qcomp=0.50 / qpmin=6 / qpmax=51 / qpstep=4 / cplxblur=20.0 / qblur=0.5 / vbv_maxrate=5220 / vbv_bufsize=6960 / nal_hrd=vbr / filler=0 / ip_ratio=1.40 / aq=1:1.00
Language : English
Default : Yes
Forced : No

Audio #1
ID : 2
Format : AC-3
Format/Info : Audio Coding 3
Codec ID : A_AC3
Duration : 56 min 59 s
Bit rate mode : Constant
Bit rate : 384 kb/s
Channel(s) : 6 channels
Channel positions : Front: L C R, Side: L R, LFE
Sampling rate : 48.0 kHz
Frame rate : 31.250 FPS (1536 SPF)
Bit depth : 16 bits
Compression mode : Lossy
Stream size : 157 MiB (9%)
Title : TVShows
Language : Russian
Service kind : Complete Main
Default : Yes
Forced : Yes

Audio #2
ID : 3
Format : E-AC-3
Format/Info : Enhanced Audio Coding 3
Codec ID : A_EAC3
Duration : 56 min 59 s
Bit rate mode : Constant
Bit rate : 640 kb/s
Channel(s) : 6 channels
Channel positions : Front: L C R, Side: L R, LFE
Sampling rate : 48.0 kHz
Frame rate : 187.500 FPS (256 SPF)
Compression mode : Lossy
Stream size : 261 MiB (14%)
Title : Original
Language : English
Service kind : Complete Main
Default : No
Forced : No

Text
ID : 4
Format : UTF-8
Codec ID : S_TEXT/UTF8
Codec ID/Info : UTF-8 Plain Text
Duration : 55 min 42 s
Bit rate : 73 b/s
Count of elements : 934
Stream size : 29.9 KiB (0%)
Title : English
Language : English
Default : No
Forced : No
Внимание! Раздача ведётся путём добавления новых серий; при каждом добавлении создаётся новый торрент.
Чтобы начать докачку новой серии, пользователям необходимо сделать следующее:
1. Остановить скачивание.
2. Удалить старый торрент у себя из клиента (старые серии удалять не надо).
3. Скачать новый торрент и запустить его у себя в клиенте вместо старого, при этом указать клиенту путь в старую папку куда и должно происходить скачивание новых серий.
Ваш клиент при этом должен произвести хеширование (проверку) старой папки (если не производит сам - помогите ему сделать это), и будет докачивать только те серии которых у вас ещё нет. Старые серии при этом не удаляются, а продолжают раздаваться!
Eсли вы уже удалили старые серии, то предотвратить повторную закачку старых серий можно, отжав галочку в соответствующих местах при запуске нового торрента.
pb.wtf



Скачать Что через торрент https://i110.fastpic.ru/big/2019/0524/57/2072589f9014b40d5c80a7ae20bec357.jpg Скачать фильм Чточерез торрент бесплантно в хорошем качестве Описание: Состоятельная немолодая женщина Анна делает паре молодоженов из Сан-Франциско, отчаянно нуждающихся в деньгах, крайне рискованное ... 10 10 3
Торрент: Зарегистрирован [2019-06-19 18:51] · скачан: 7 раз
Статус: √ проверено
Размер: 3.42 GB
Как cкачать? Как скачать Что через торрент | qTorrent


>> Регистрируемся здесь <<






Отзывы и комментарии о схеме читаем и пишем здесь: ---> Отзывы и комментарии о схеме

Новые благодарочки в телеграм довольных пользователей:
скриншот   скриншот   скриншот   скриншот   скриншот
    Дорогой пользователь! Огромная просьба, поблагодарите релизера, оцените раздачу и оставьте свои комментарий, если Вы скачали Что через торрент бесплатно! Внесите свою лепту в развитие PiratBit!
    Комментировать посты могут только пользователи прошедшие не сложную регистрацию
    Показать сообщения:    

    Что через торрент
    Скачать бесплатно Что
    Что скачать торрент
    Что смотреть онлайн
    Cкачать фильм Что бесплатно
    Что скачать торрент в хорошем качестве
    Что смотреть онлайн бесплатно в хорошем качестве


    Вы не можете начинать темы
    Вы не можете отвечать на сообщения
    Вы не можете редактировать свои сообщения
    Вы не можете удалять свои сообщения
    Вы не можете голосовать в опросах
    Вы не можете прикреплять файлы к сообщениям
    Вы можете скачивать файлы