MEGA NEWS Получи личный уникальный адрес сайта и защити себя от блокировок. Внимание количество ограничено!!!

iTunes

1+1

iTunes

мы

iTunes

1

iTunes

Чернобыль

iTunes

Ральф против интернета

Лицензия

ПШазам

Лицензия

Игра престолов

Лицензия

30
pack

ВАЖНО

!!Акция!!

Alien_RageХит недели

RePack

Resident Evil 21

ИГРА 18+

pack

RePack

Metro:Exodus

!!Акция!!

Alien_Rage

RePack

fifa19

RePack

Assassins Creed: Odyssey

RePack

NEED FOR SPEED™ PAYBACK

3 сезон

9 сезон

Бесстыжие 9 сезон

Все сериалы

все сериалы на PB.wtf

RePack

FAR CRY 5
Ребята, катастрофически не хватает 1900р. для оплаты серверов за АВГУСТ (всвязи с блокировками трафик упал в 3 раза), 1-2р., выручайте.
  

Слишком стар, чтобы умереть молодым / Too Old to Die Young / Сезон: 1 / Серии: 1-10 из 10 (Николас Виндинг Рефн) [2019, драма, криминал, триллер, WEBRip 1080p] MVO [TVShows] pb.wtf

Слишком стар, чтобы умереть молодым через торрент pb.wtf

Размер: 52.6 GB | Добавлен: 3 мес. 16 д. назад | Торрент скачан:9 раз
Скачать  

19-06-2019 19:05 Слишком стар, чтобы умереть молодым Скачать торрент  

Слишком стар, чтобы умереть молодым / Too Old to Die Young Год выпуска: 2019
Страна: США
Жанр: драма, криминал, триллер
Продолжительность: ~ 01:30:00 серия
Перевод: Профессиональный(многоголосый закадровый) | TVShows
Субтитры: English

Режиссёр: Николас Виндинг Рефн

В ролях: Бабс Олусанмокун, Селестин Кориэль, Майлз Теллер, Нелл Тайгер Фри, Уильям Болдуин, Александр Гомес, Джон Хоукс, Августо Агилера, Джена Мэлоун, Кристина Родло и др.

Описание: Полицейский Мартин во время службы убил «не ту женщину» и оказался вовлечён в гангстерский конфликт. Теперь подполье ждёт, что он искупит вину. Среди сторон — якудза, русская мафия, мексиканские наёмники и банды тинейджеров.

rating


Качество: WEBRip 1080p
Формат: MKV

Видео: AVC, 1920x1040, 1.85:1, 24 fps, 8934 kb/s
Аудио 1: Русский, AC-3, 48.0 kHz, 6 ch, 384 kb/s
Аудио 2: Английский, E-AC-3, 48.0 kHz, 6 ch, 640 kb/s
General
Unique ID : 174187568692934680792735737709818957210 (0x830B4E31E0B04BA1F34E7B7A45FE4D9A)
Complete name : C:\Too.Old.to.Die.Young.S01.1080p.TVShows\Too.Old.to.Die.Young.S01E01.1080p.TVShows.mkv
Format : Matroska
Format version : Version 4 / Version 2
File size : 6.48 GiB
Duration : 1 h 33 min
Overall bit rate : 9 961 kb/s
Encoded date : UTC 2019-06-18 08:27:42
Writing application : mkvmerge v33.1.0 ('Primrose') 64-bit
Writing library : libebml v1.3.7 + libmatroska v1.5.0

Video
ID : 1
Format : AVC
Format/Info : Advanced Video Codec
Format profile : High@L4
Format settings : CABAC / 4 Ref Frames
Format settings, CABAC : Yes
Format settings, ReFrames : 4 frames
Format settings, GOP : M=4, N=48
Codec ID : V_MPEG4/ISO/AVC
Duration : 1 h 33 min
Bit rate mode : Constant
Bit rate : 8 934 kb/s
Nominal bit rate : 10 000 kb/s
Width : 1 920 pixels
Height : 1 040 pixels
Display aspect ratio : 1.85:1
Frame rate mode : Constant
Frame rate : 24.000 FPS
Color space : YUV
Chroma subsampling : 4:2:0
Bit depth : 8 bits
Scan type : Progressive
Bits/(Pixel*Frame) : 0.186
Stream size : 5.81 GiB (90%)
Default : Yes
Forced : No
Color range : Limited
Color primaries : BT.709
Transfer characteristics : BT.709
Matrix coefficients : BT.709

Audio #1
ID : 2
Format : AC-3
Format/Info : Audio Coding 3
Codec ID : A_AC3
Duration : 1 h 33 min
Bit rate mode : Constant
Bit rate : 384 kb/s
Channel(s) : 6 channels
Channel positions : Front: L C R, Side: L R, LFE
Sampling rate : 48.0 kHz
Frame rate : 31.250 FPS (1536 SPF)
Bit depth : 16 bits
Compression mode : Lossy
Stream size : 256 MiB (4%)
Title : TVShows
Language : Russian
Service kind : Complete Main
Default : Yes
Forced : Yes

Audio #2
ID : 3
Format : E-AC-3
Format/Info : Enhanced Audio Coding 3
Codec ID : A_EAC3
Duration : 1 h 33 min
Bit rate mode : Constant
Bit rate : 640 kb/s
Channel(s) : 6 channels
Channel positions : Front: L C R, Side: L R, LFE
Sampling rate : 48.0 kHz
Frame rate : 187.500 FPS (256 SPF)
Compression mode : Lossy
Stream size : 426 MiB (6%)
Title : Original
Language : English
Service kind : Complete Main
Default : No
Forced : No

Text
ID : 4
Format : UTF-8
Codec ID : S_TEXT/UTF8
Codec ID/Info : UTF-8 Plain Text
Duration : 1 h 32 min
Bit rate : 25 b/s
Count of elements : 782
Stream size : 17.5 KiB (0%)
Title : English
Language : English
Default : No
Forced : No
скриншот  скриншот  скриншот  

скриншот  скриншот  скриншот  
Внимание! Раздача ведётся путём добавления новых серий; при каждом добавлении создаётся новый торрент.
Чтобы начать докачку новой серии, пользователям необходимо сделать следующее:
1. Остановить скачивание.
2. Удалить старый торрент у себя из клиента (старые серии удалять не надо).
3. Скачать новый торрент и запустить его у себя в клиенте вместо старого, при этом указать клиенту путь в старую папку куда и должно происходить скачивание новых серий.
Ваш клиент при этом должен произвести хеширование (проверку) старой папки (если не производит сам - помогите ему сделать это), и будет докачивать только те серии которых у вас ещё нет. Старые серии при этом не удаляются, а продолжают раздаваться!
Eсли вы уже удалили старые серии, то предотвратить повторную закачку старых серий можно, отжав галочку в соответствующих местах при запуске нового торрента.
pb.wtf



Скачать Слишком стар, чтобы умереть молодым через торрент https://i110.fastpic.ru/big/2019/0617/e7/d3b427b692e3410d19bbb381f0f212e7.jpg Скачать фильм Слишком стар, чтобы умереть молодым через торрент бесплантно в хорошем качестве Описание: Полицейский Мартин во время службы убил «не ту женщину» и оказался вовлечён в гангстерский конфликт. Теперь подполье ждёт, что он ... 10 10 2
Торрент: Зарегистрирован [2019-07-02 14:05] · скачан: 9 раз
Статус: √ проверено
Размер: 52.6 GB
Как cкачать? Как скачать Слишком стар, чтобы умереть молодым через торрент | qTorrent

% Раздел Тема Автор DL S | L
Зарубежные сериалы [ 53.96 GB ] Слишком стар чтобы умереть молодым / Too Old to Die Young / Сезон: 1 / Серии: 1-10 из 10 [2019 WEB-DL 1080p] MVO [Lostfilm] bober100 Скачать
2 | 1
Зарубежные сериалы [ 9.16 GB ] Слишком стар чтобы умереть молодым / Too Old to Die Young / Сезон: 1 / Серии: 1-8 из 10 [2019 WEB-DLRip] MVO [Lostfilm] bober100 Скачать
1 | 0
Зарубежные сериалы [ 27.15 GB ] Слишком стар чтобы умереть молодым / Too Old to Die Young / Сезон: 1 / Серии: 1-10 из 10 [2019 WEB-DL 720p] MVO [Lostfilm] bober100 Скачать
2 | 0
Зарубежные сериалы [ 27.15 GB ] Слишком стар чтобы умереть молодым / Too Old to Die Young / Сезон: 1 / Серии: 1-10 из 10 [2019 WEBRip 720p] [MVO] killermax2013 Скачать
1 | 1
Зарубежные сериалы [ 10.57 GB ] Слишком стар чтобы умереть молодым / Too Old to Die Young / Сезон: 1 / Серии: 1-10 из 10 [2019 . WEB-DLRip] [MVO] killermax2013 Скачать
1 | 0
Фильмы без перевода [ 50.57 GB ] Слишком стар чтобы умереть молодым / Too Old to Die Young / Сезон: 1 / Серии: 1-10 из 10 [2019 WEBRip 1080p] [Sub] killermax2013 Скачать
1 | 0


>> Регистрируемся здесь <<






Отзывы и комментарии о схеме читаем и пишем здесь: ---> Отзывы и комментарии о схеме

Новые благодарочки в телеграм довольных пользователей:
скриншот   скриншот   скриншот   скриншот   скриншот
    Дорогой пользователь! Огромная просьба, поблагодарите релизера, оцените раздачу и оставьте свои комментарий, если Вы скачали Слишком стар, чтобы умереть молодым через торрент бесплатно! Внесите свою лепту в развитие PiratBit!
    Комментировать посты могут только пользователи прошедшие не сложную регистрацию
    Показать сообщения:    

    Слишком стар, чтобы умереть молодым через торрент
    Скачать бесплатно Слишком стар, чтобы умереть молодым
    Слишком стар, чтобы умереть молодым скачать торрент
    Слишком стар, чтобы умереть молодым смотреть онлайн
    Cкачать фильм Слишком стар, чтобы умереть молодым бесплатно
    Слишком стар, чтобы умереть молодым скачать торрент в хорошем качестве
    Слишком стар, чтобы умереть молодым смотреть онлайн бесплатно в хорошем качестве


    Вы не можете начинать темы
    Вы не можете отвечать на сообщения
    Вы не можете редактировать свои сообщения
    Вы не можете удалять свои сообщения
    Вы не можете голосовать в опросах
    Вы не можете прикреплять файлы к сообщениям
    Вы можете скачивать файлы