Мега распродажа FORZA HORIZON 4 ULTIMATE+ВСЕ DLC+ОНЛАЙН всего за 499р. 349 руб. (супер цена). Внимание количество ограничено!!!

iTunes

1+1

iTunes

мы

iTunes

1

1 сезон

Чернобыль

1 сезон

Ральф против интернета

Лицензия

ПШазам

8 сезон

Игра престолов

Лицензия

30
pack

ВАЖНО

!!Акция!!

Alien_RageХит недели

RePack

Resident Evil 21

ИГРА 18+

pack

RePack

Metro:Exodus

!!Акция!!

Alien_Rage

RePack

fifa19

RePack

Assassins Creed: Odyssey

RePack

NEED FOR SPEED™ PAYBACK

3 сезон

9 сезон

Бесстыжие 9 сезон

Все сериалы

все сериалы на PB.wtf

RePack

FAR CRY 5
Ребята, катастрофически не хватает 2730р. для оплаты серверов за ИЮНЬ (всвязи с блокировками трафик упал в 3 раза), 1-2р., выручайте.
  

Бойтесь ходячих мертвецов / Fear the Walking Dead / Сезон: 5 / Серии: 1-7 из 16 (Стефан Шварц, Эндрю Бернштейн, Адам Дэвидсон) [2019, Ужасы, фантастика, триллер, драма, WEB-DL 1080p] MVO [AMS] pb.wtf

Бойтесь ходячих мертвецов через торрент pb.wtf

Раздают: 1 [ 0 KB/s ] Качают: 1 [ 0 KB/s ]
Размер: 22.87 GB | Добавлен: 1 д. 6 ч. назад | Торрент скачан:1 раз
Скачать  

19-06-2019 19:14 Бойтесь ходячих мертвецов Скачать торрент  

Бойтесь ходячих мертвецов / Fear the Walking Dead Год выпуска: 2019
Страна: США
Жанр: Ужасы, фантастика, триллер, драма
Продолжительность: ~ 00:45:00
Перевод: Профессиональный (многоголосый закадровый) | AMS
Субтитры: английские (full + SDH)

Режиссёр: Стефан Шварц, Эндрю Бернштейн, Адам Дэвидсон

В ролях: Ким Диккенс, Клифф Кёртис, Фрэнк Диллэйн, Алисия Дебнем-Кери, Элизабет Родригес, Мерседес Масон, Лоренцо Джеймс Генри, Рубен Бладес, Колман Доминго, Денай Гарсиа и другие

Описание:
Действия сериала происходят параллельно с событиями зомби-апокалипсиса, показанными в сериале «Ходячие мертвецы», но в совершенно другом месте — Лос-Анджелесе. В центре сюжета находится семья матери-одиночки и консультанта по профессиям Мэдисон Кларк и разведённого учителя Трэвиса Манавы, которые вместе пытаются выжить в зомби-апокалипсисе.

rating

Качество: WEB-DL 1080p
Контейнер: MKV

Видео: 1920x1080 (16:9), 23.976 fps, MPEG-4 AVC ~8 745 kbps avg
Аудио 1: 48.0 kHz, AC3 Dolby Digital, 3/2 (L,C,R,l,r) + LFE ch, ~640 kbps | RUS
Аудио 2: 48.0 kHz, AC3 Dolby Digital, 3/2 (L,C,R,l,r) + LFE ch, ~640 kbps | ENG


Реклама: Присутствует звуковая (два раза: в начале и конце по 10 сек)
General
Unique ID : 203994978876322014779611616263402790717 (0x997800FB2691FC3FC25475FBB3059F3D)
Complete name : /Fear.the.Walking.Dead.S05.1080p.WEB-DL.AMS/Fear.the.Walking.Dead.S05E01.1080p.WEB-DL.AMS.mkv
Format : Matroska
Format version : Version 4
File size : 3.20 GiB
Duration : 45mn 44s
Overall bit rate : 10.0 Mbps
Movie name : Fear the Walking Dead 5x01 - MVO AMS
Encoded date : UTC 2019-06-13 20:32:41
Writing application : mkvmerge v8.2.0 ('World of Adventure') 64bit
Writing library : libebml v1.3.1 + libmatroska v1.4.2

Video
ID : 1
Format : AVC
Format/Info : Advanced Video Codec
Format profile : High@L4
Format settings : CABAC / 4 Ref Frames
Format settings, CABAC : Yes
Format settings, ReFrames : 4 frames
Codec ID : V_MPEG4/ISO/AVC
Duration : 45mn 44s
Bit rate mode : Constant
Bit rate : 8 745 Kbps
Nominal bit rate : 10 000 Kbps
Width : 1 920 pixels
Height : 1 080 pixels
Display aspect ratio : 16:9
Frame rate mode : Constant
Frame rate : 23.976 (24000/1001) fps
Color space : YUV
Chroma subsampling : 4:2:0
Bit depth : 8 bits
Scan type : Progressive
Bits/(Pixel*Frame) : 0.176
Stream size : 2.79 GiB (87%)
Title : Fear the Walking Dead 5x01 - MVO AMS
Default : Yes
Forced : No
Color range : Limited
Color primaries : BT.709
Transfer characteristics : BT.709
Matrix coefficients : BT.709

Audio #1
ID : 2
Format : AC-3
Format/Info : Audio Coding 3
Commercial name : Dolby Digital
Codec ID : A_AC3
Duration : 45mn 44s
Bit rate mode : Constant
Bit rate : 640 Kbps
Channel(s) : 6 channels
Channel layout : L R C LFE Ls Rs
Sampling rate : 48.0 KHz
Frame rate : 31.250 fps (1536 SPF)
Bit depth : 16 bits
Compression mode : Lossy
Stream size : 209 MiB (6%)
Title : MVO AMS
Language : Russian
Service kind : Complete Main
Default : Yes
Forced : No

Audio #2
ID : 3
Format : AC-3
Format/Info : Audio Coding 3
Commercial name : Dolby Digital
Codec ID : A_AC3
Duration : 45mn 44s
Bit rate mode : Constant
Bit rate : 640 Kbps
Channel(s) : 6 channels
Channel layout : L R C LFE Ls Rs
Sampling rate : 48.0 KHz
Frame rate : 31.250 fps (1536 SPF)
Bit depth : 16 bits
Compression mode : Lossy
Stream size : 209 MiB (6%)
Title : Original
Language : English
Service kind : Complete Main
Default : No
Forced : No

Text #1
ID : 4
Format : UTF-8
Codec ID : S_TEXT/UTF8
Codec ID/Info : UTF-8 Plain Text
Duration : 44mn 52s
Bit rate : 42 bps
Count of elements : 567
Stream size : 14.1 KiB (0%)
Title : Eng-Subs
Language : English
Default : No
Forced : No

Text #2
ID : 5
Format : UTF-8
Codec ID : S_TEXT/UTF8
Codec ID/Info : UTF-8 Plain Text
Duration : 45mn 38s
Bit rate : 49 bps
Count of elements : 800
Stream size : 16.4 KiB (0%)
Title : Eng-Subs (SDH)
Language : English
Default : No
Forced : No
Внимание! Раздача ведётся путём добавления новых серий; при каждом добавлении создаётся новый торрент.
Чтобы начать докачку новой серии, пользователям необходимо сделать следующее:
1. Остановить скачивание.
2. Удалить старый торрент у себя из клиента (старые серии удалять не надо).
3. Скачать новый торрент и запустить его у себя в клиенте вместо старого, при этом указать клиенту путь в старую папку куда и должно происходить скачивание новых серий.
Ваш клиент при этом должен произвести хеширование (проверку) старой папки (если не производит сам - помогите ему сделать это), и будет докачивать только те серии которых у вас ещё нет. Старые серии при этом не удаляются, а продолжают раздаваться!
Eсли вы уже удалили старые серии, то предотвратить повторную закачку старых серий можно, отжав галочку в соответствующих местах при запуске нового торрента.
pb.wtf



Скачать Бойтесь ходячих мертвецов через торрент https://c.radikal.ru/c01/1906/2f/b21a7d3b7275.jpg Скачать фильм Бойтесь ходячих мертвецов через торрент бесплантно в хорошем качестве Описание:Действия сериала происходят параллельно с событиями зомби-апокалипсиса, показанными в сериале «Ходячие мертвецы», но в совершенно ... 10 10 4
Торрент: Зарегистрирован [2019-07-17 16:49] · скачан: 1 раз
Статус: √ проверено
Размер: 22.87 GB
Как cкачать? Как скачать Бойтесь ходячих мертвецов через торрент | qTorrent

% Раздел Тема Автор DL S | L
Зарубежные сериалы [ 12.92 GB ] Бойтесь ходячих мертвецов / Fear the Walking Dead / Сезон: 5 / Серии: 1-7 из 16 [2019 WEB-DL 720p] MVO [LostFilm] bober100 Скачать
1 | 0
Зарубежные сериалы [ 9.47 GB ] Бойтесь ходячих мертвецов / Fear the Walking Dead / Сезон: 5 / Серии: 1-7 из 16 [2019 HDTVRip 720p] DVO [Kerob] bober100 Скачать
4 | 2
Зарубежные сериалы [ 3.4 GB ] Бойтесь ходячих мертвецов / Fear the Walking Dead / Сезон: 5 / Серии: 1-7 из 16 [2019 HDTVRip] DVO [Kerob] bober100 Скачать
2 | 3


Последний раз редактировалось: bober100 (2019-07-17 16:49), всего редактировалось 2 раз(а)


>> Регистрируемся здесь <<






Отзывы и комментарии о схеме читаем и пишем здесь: ---> Отзывы и комментарии о схеме

Новые благодарочки в телеграм довольных пользователей:
скриншот   скриншот   скриншот   скриншот   скриншот

28-06-2019 08:04 Бойтесь ходячих мертвецов Скачать торрент  

уважаемый! а 4 серию можно залить pb.wtf



    Дорогой пользователь! Огромная просьба, поблагодарите релизера, оцените раздачу и оставьте свои комментарий, если Вы скачали Бойтесь ходячих мертвецов через торрент бесплатно! Внесите свою лепту в развитие PiratBit!
    Комментировать посты могут только пользователи прошедшие не сложную регистрацию
    Показать сообщения:    

    Бойтесь ходячих мертвецов через торрент
    Скачать бесплатно Бойтесь ходячих мертвецов
    Бойтесь ходячих мертвецов скачать торрент
    Бойтесь ходячих мертвецов смотреть онлайн
    Cкачать фильм Бойтесь ходячих мертвецов бесплатно
    Бойтесь ходячих мертвецов скачать торрент в хорошем качестве
    Бойтесь ходячих мертвецов смотреть онлайн бесплатно в хорошем качестве


    Вы не можете начинать темы
    Вы не можете отвечать на сообщения
    Вы не можете редактировать свои сообщения
    Вы не можете удалять свои сообщения
    Вы не можете голосовать в опросах
    Вы не можете прикреплять файлы к сообщениям
    Вы можете скачивать файлы