Ссылка на приватное зеркало всего за 1$. Внимание количество ограничено!!!

iTunes

iTunes

iTunes

1

iTunes

iTunes

iTunes

iTunes

iTunes

30
pack

$ от Little Big

ВАЖНО

!!Акция!!

Alien_RageХит недели

RePack

Resident Evil 21

ИГРА 18+

pack

RePack

jed

!!Акция!!

Alien_Rage

RePack

fifa19

RePack

Assassins Creed: Odyssey

RePack

NEED FOR SPEED™ PAYBACK

4 сезон

9 сезон

Бесстыжие 9 сезон

Все сериалы

все сериалы на PB.wtf

RePack

FAR CRY 5
  

Варавва (Евгений Емелин) [2019, драма, криминал, биография, история, WEB-DLRip-AVC] [iTunes] - ExKinoRay pb.wtf

Варавва через торрент pb.wtf

Раздают: 13 [ 0 KB/s ] Качают: 1 [ 0 KB/s ]
Размер: 2.26 GB | Добавлен: 6 мес. назад | Торрент скачан:133 раза
Скачать  

20-06-2019 02:13 Варавва Скачать торрент  

Информация о фильме
Название: Варавва
Год выхода: 2019
Жанр: Драма, биография, история
Режиссер: Евгений Емелин
В ролях: Павел Крайнов, Регина Хакимова, Залим Мирзоев, Александр Лаптий, Елена Подкаминская, Константин Самоуков, Сергей Санаев, Альберт Филозов, Виталий Максименко, Светлана Агафошина

Описание: Всем знакома библейская история о смерти и воскресении Христа. Но как выглядели события с точки зрения Вараввы, убийцы, отпущенного толпой вместо Иисуса? Чем обернулось ему это помилование? Варавва оказывается неожиданным образом связан с Иудой, который не смог заглушить в себе голос совести после предательства Христа и не нашел в себе силы покаяться. Варавва пытается понять, кто же тот человек, который вместо него распят, и разобраться, действительно ли он — Сын Божий? В поисках истины Варавва получает ответы на вопросы, которые заставляют его пересмотреть взгляды на всю свою жизнь.

rating

Страна: Россия
Студия: Артворкс Фильм
Продолжительность: 01:54:46
Язык: Русский | iTunes

Формат: MKV
Качество: WEB-DLRip-AVC
Видео: MPEG-4 AVC, 1024x426 (2.40:1), 25.000 fps, 2430 Kbps, 0.223 bit/pixel
Аудио : 48 kHz, AC3, 5.1, 384 Kbps | RUS |
General
Unique ID : 232922439526932689434054896747714737769 (0xAF3B3AE7DD31BA499E3D09E5A3047669)
Complete name : F:\Varavva.2019.WEB-DL.AVC.ExKinoRay.mkv
Format : Matroska
Format version : Version 2
File size : 2.26 GiB
Duration : 1 h 54 min
Overall bit rate : 2 813 kb/s
Movie name : Варавва (2019) from ExKinoRay
Encoded date : UTC 2019-12-27 04:25:06
Writing application : mkvmerge v5.6.0 ('Kenya Kane') built on May 27 2012 16:44:04
Writing library : libebml v1.2.3 + libmatroska v1.3.0

Video
ID : 1
Format : AVC
Format/Info : Advanced Video Codec
Format profile : High@L4.1
Format settings, CABAC : Yes
Format settings, ReFrames : 11 frames
Codec ID : V_MPEG4/ISO/AVC
Duration : 1 h 54 min
Bit rate : 2 430 kb/s
Width : 1 024 pixels
Height : 426 pixels
Display aspect ratio : 2.40:1
Frame rate mode : Constant
Frame rate : 25.000 FPS
Color space : YUV
Chroma subsampling : 4:2:0
Bit depth : 8 bits
Scan type : Progressive
Bits/(Pixel*Frame) : 0.223
Stream size : 1.90 GiB (84%)
Title : Enigma
Writing library : x264 core 152 r2851 ba24899
Encoding settings : cabac=1 / ref=11 / deblock=1:-2:-2 / analyse=0x3:0x113 / me=umh / subme=10 / psy=1 / psy_rd=1.05:0.10 / mixed_ref=1 / me_range=32 / chroma_me=1 / trellis=2 / 8x8dct=1 / cqm=0 / deadzone=21,11 / fast_pskip=0 / chroma_qp_offset=-3 / threads=12 / lookahead_threads=3 / sliced_threads=0 / nr=0 / decimate=0 / interlaced=0 / bluray_compat=0 / constrained_intra=0 / bframes=10 / b_pyramid=2 / b_adapt=2 / b_bias=0 / direct=3 / weightb=1 / open_gop=0 / weightp=2 / keyint=240 / keyint_min=24 / scenecut=40 / intra_refresh=0 / rc=2pass / mbtree=0 / bitrate=2430 / ratetol=1.0 / qcomp=0.64 / qpmin=0 / qpmax=51 / qpstep=4 / cplxblur=20.0 / qblur=0.5 / ip_ratio=1.30 / pb_ratio=1.20 / aq=3:0.80
Language : English
Default : Yes
Forced : No
Color range : Limited
Color primaries : BT.709
Transfer characteristics : BT.709
Matrix coefficients : BT.709

Audio
ID : 2
Format : AC-3
Format/Info : Audio Coding 3
Mode extension : CM (complete main)
Format settings, Endianness : Big
Codec ID : A_AC3
Duration : 1 h 54 min
Bit rate mode : Constant
Bit rate : 384 kb/s
Channel(s) : 6 channels
Channel positions : Front: L C R, Side: L R, LFE
Sampling rate : 48.0 kHz
Frame rate : 31.250 FPS (1536 spf)
Compression mode : Lossy
Stream size : 315 MiB (14%)
Title : iTunes
Language : Russian
Default : Yes
Forced : No


Релиз от:

Автор релиза: pb.wtf



Скачать Варавва через торрент https://b.radikal.ru/b21/1906/5c/5ca64e1e8d10.jpg Скачать фильм Варавва через торрент бесплантно в хорошем качестве Описание: Всем знакома библейская история о смерти и воскресении Христа. Но как выглядели события с точки зрения Вараввы, убийцы, ... 8.5 10 6
Info! Золотая раздача, скачанное не засчитывается.
Торрент: Зарегистрирован [2019-12-29 04:55] · скачан: 133 раз
Статус: √ проверено
Размер: 2.26 GB
Как cкачать? Как скачать Варавва через торрент | qTorrent

28-11-2019 20:33  

Отключить всю рекламу на сайте

29-12-2019 04:56 Варавва Скачать торрент  

Замена на 6 каналов.pb.wtf



30-12-2019 17:21 Варавва Скачать торрент  

Вот это Емеля замутил муть pb.wtf



    Дорогой пользователь! Огромная просьба, поблагодарите релизера, оцените раздачу и оставьте свои комментарий, если Вы скачали Варавва через торрент бесплатно! Внесите свою лепту в развитие PiratBit!
    Комментировать посты могут только пользователи прошедшие не сложную регистрацию
    Показать сообщения:    

    Варавва через торрент
    Скачать бесплатно Варавва
    Варавва скачать торрент
    Варавва смотреть онлайн
    Cкачать фильм Варавва бесплатно
    Варавва скачать торрент в хорошем качестве
    Варавва смотреть онлайн бесплатно в хорошем качестве


    Вы не можете начинать темы
    Вы не можете отвечать на сообщения
    Вы не можете редактировать свои сообщения
    Вы не можете удалять свои сообщения
    Вы не можете голосовать в опросах
    Вы не можете прикреплять файлы к сообщениям
    Вы можете скачивать файлы