Мега распродажа FORZA HORIZON 4 ULTIMATE+ВСЕ DLC+ОНЛАЙН всего за 499р. 349 руб. (супер цена). Внимание количество ограничено!!!

iTunes

1+1

iTunes

мы

iTunes

1

1 сезон

Чернобыль

1 сезон

Ральф против интернета

Лицензия

ПШазам

8 сезон

Игра престолов

Лицензия

30
pack

ВАЖНО

!!Акция!!

Alien_RageХит недели

RePack

Resident Evil 21

ИГРА 18+

pack

RePack

Metro:Exodus

!!Акция!!

Alien_Rage

RePack

fifa19

RePack

Assassins Creed: Odyssey

RePack

NEED FOR SPEED™ PAYBACK

3 сезон

9 сезон

Бесстыжие 9 сезон

Все сериалы

все сериалы на PB.wtf

RePack

FAR CRY 5
Ребята, катастрофически не хватает 2730р. для оплаты серверов за ИЮНЬ (всвязи с блокировками трафик упал в 3 раза), 1-2р., выручайте.
  

Бумажный дом / La casa de papel / Money Heist / Сезон: 2 / Серии: 1-9 из 9 (Хесус Кольменар, Алекс Родриго, Алехандро Бассано) [2018, Боевик, триллер, криминал, детектив, WEB-DL 1080p] [MVO] (Jaskier) pb.wtf

Бумажный дом через торрент pb.wtf

Размер: 11.14 GB | Добавлен: 28 д. назад | Торрент скачан:32 раза
Скачать  

20-06-2019 08:20 Бумажный дом Скачать торрент  

Бумажный дом / La casa de papel / Money Heist

Год выпуска: 2018
Страна: Испания
Жанр: Боевик, триллер, криминал, детектив
Продолжительность: ~ 00:44:00

Перевод: Профессиональный (многоголосый закадровый) | Jaskier (БЕЗ ЦЕНЗУРЫ)

Режиссёр: Хесус Кольменар, Алекс Родриго, Алехандро Бассано

В ролях: Урсула Корберо, Ициар Итуньо, Альваро Морте, Пако Тоус, Педро Алонсо, Альба Флорес, Мигель Эрран, Хайме Лорэнте, Эстер Асебо, Энрике Арсе

Описание: История о преступниках, решивших ограбить Королевский монетный двор Испании и украсть 2400 млн евро.



Качество: WEB-DL 1080p
Формат: MKV
Видео: X264, ~ 4200 kbps, 1920x1080 (16:9), 25 fps
Аудио: AC3, 48,0 КГц, 2 ch, 192 kbps - RUS
Субтитры: отсутствуют
Общее
Уникальный идентификатор : 182678528228910271544593277764159383409 (0x896E9AD24A238E64BE128126FFBBA771)
Полное имя : V:\La.Casa.de.Papel. Season 2 (1080p l Jaskier)\La.Casa.de.Papel.S02E01.1080p.Jaskier.mkv
Формат : Matroska
Версия формата : Version 2
Размер файла : 1,31 Гбайт
Продолжительность : 42 м.
Режим общего битрейта : Переменный
Общий поток : 4367 Кбит/сек
Дата кодирования : UTC 2019-05-08 20:04:03
Программа кодирования : mkvmerge v7.8.0 ('River Man') 32bit built on Apr 3 2015 12:11:22
Библиотека кодирования : libebml v1.3.1 + libmatroska v1.4.2

Видео
Идентификатор : 1
Формат : AVC
Формат/Информация : Advanced Video Codec
Профиль формата : Main@L4
Параметр CABAC формата : Да
Параметр ReFrames формата : 3 кадра
Идентификатор кодека : V_MPEG4/ISO/AVC
Продолжительность : 42 м.
Вид битрейта : Переменный
Битрейт : 4220 Кбит/сек
Максимальный битрейт : 6330 Кбит/сек
Ширина : 1920 пикселей
Высота : 1080 пикселей
Соотношение сторон : 16:9
Режим частоты кадров : Постоянный
Частота кадров : 25,000 кадров/сек
Цветовое пространство : YUV
Субдискретизация насыщенности : 4:2:0
Битовая глубина : 8 бит
Тип развёртки : Прогрессивная
Бит/(Пиксели*Кадры) : 0.081
Размер потока : 1,23 Гбайт (94%)
Библиотека кодирования : x264 core 148
Настройки программы : cabac=1 / ref=3 / deblock=1:0:0 / analyse=0x1:0x111 / me=umh / subme=10 / psy=1 / psy_rd=1.00:0.00 / mixed_ref=1 / me_range=24 / chroma_me=1 / trellis=2 / 8x8dct=0 / cqm=0 / deadzone=21,11 / fast_pskip=1 / chroma_qp_offset=-2 / threads=8 / lookahead_threads=1 / sliced_threads=0 / nr=0 / decimate=1 / interlaced=0 / bluray_compat=0 / stitchable=1 / constrained_intra=0 / bframes=2 / b_pyramid=0 / b_adapt=2 / b_bias=0 / direct=3 / weightb=1 / open_gop=0 / weightp=2 / keyint=50 / keyint_min=26 / scenecut=0 / intra_refresh=0 / rc_lookahead=50 / rc=2pass / mbtree=1 / bitrate=4220 / ratetol=1.0 / qcomp=0.50 / qpmin=6 / qpmax=51 / qpstep=4 / cplxblur=20.0 / qblur=0.5 / vbv_maxrate=6330 / vbv_bufsize=8440 / nal_hrd=vbr / filler=0 / ip_ratio=1.40 / aq=1:1.00
Default : Да
Forced : Нет

Аудио
Идентификатор : 2
Формат : AC-3
Формат/Информация : Audio Coding 3
Расширение режима : CM (complete main)
Параметр Endianness формата : Big
Идентификатор кодека : A_AC3
Продолжительность : 42 м.
Вид битрейта : Постоянный
Битрейт : 192 Кбит/сек
Каналы : 2 канала
Расположение каналов : Front: L R
Частота : 48,0 КГц
Частота кадров : 31,250 кадров/сек (1536 spf)
Метод сжатия : С потерями
Размер потока : 59,0 Мбайт (4%)
Язык : Russian
Default : Да
Forced : Нет
скриншот  скриншот  скриншот  
pb.wtf



Скачать Бумажный дом через торрент https://i110.fastpic.ru/big/2019/0509/a4/1d29d594736b6db52d44bfb9180036a4.png Скачать фильм Бумажный дом через торрент бесплантно в хорошем качестве Описание: История о преступниках, решивших ограбить Королевский монетный двор Испании и украсть 2400 млн ... 10 10 1
Торрент: Зарегистрирован [2019-06-20 08:20] · скачан: 32 раз
Статус: √ проверено
Размер: 11.14 GB
Как cкачать? Как скачать Бумажный дом через торрент | qTorrent


>> Регистрируемся здесь <<






Отзывы и комментарии о схеме читаем и пишем здесь: ---> Отзывы и комментарии о схеме

Новые благодарочки в телеграм довольных пользователей:
скриншот   скриншот   скриншот   скриншот   скриншот
    Дорогой пользователь! Огромная просьба, поблагодарите релизера, оцените раздачу и оставьте свои комментарий, если Вы скачали Бумажный дом через торрент бесплатно! Внесите свою лепту в развитие PiratBit!
    Комментировать посты могут только пользователи прошедшие не сложную регистрацию
    Показать сообщения:    

    Бумажный дом через торрент
    Скачать бесплатно Бумажный дом
    Бумажный дом скачать торрент
    Бумажный дом смотреть онлайн
    Cкачать фильм Бумажный дом бесплатно
    Бумажный дом скачать торрент в хорошем качестве
    Бумажный дом смотреть онлайн бесплатно в хорошем качестве


    Вы не можете начинать темы
    Вы не можете отвечать на сообщения
    Вы не можете редактировать свои сообщения
    Вы не можете удалять свои сообщения
    Вы не можете голосовать в опросах
    Вы не можете прикреплять файлы к сообщениям
    Вы можете скачивать файлы