Ссылка на приватное зеркало нашего сайта всего за 1$. Внимание количество ограничено!!!

2 сезон

iTunes

1 сезон

1

2 сезон

2 сезон

iTunes

1 сезон

RePack

30

Ultimate

ВАЖНО

ИГРА 18+

pack

RePack

MK11
pack

Забери бонус

RePack

jed

!!Акция!!

Alien_Rage

RePack

fifa19

RePack

Assassins Creed: Odyssey

RePack

NEED FOR SPEED™ PAYBACK

4 сезон

9 сезон

Бесстыжие 9 сезон

Все сериалы

все сериалы на PB.wtf

RePack

FAR CRY 5
  

Если Бил-стрит могла бы заговорить / If Beale Street Could Talk (Барри Дженкинс) [2018, Драма, мелодрама, криминал, BD Remux 1080p] MVO [Лицензия] pb.wtf

Если Бил-стрит могла бы заговорить через торрент pb.wtf

Размер: 25.9 GB | Добавлен: 1 год 5 мес. назад | Торрент скачан:30 раз
Скачать  

20-06-2019 10:42 Если Бил-стрит могла бы заговорить Скачать торрент  

Если Бил-стрит могла бы заговорить / If Beale Street Could Talk
Год выпуска: 2018
Страна: США
Жанр: Драма, мелодрама, криминал
Продолжительность: 01:59:05
Перевод: Профессиональный многоголосый | Лицензия
Субтитры: Русские (Full), английские

Режиссер: Барри Дженкинс

rating

В ролях: Кики Лэйн, Стэфан Джеймс, Реджина Кинг, Колман Доминго, Тейона Паррис, Майкл Бич, Онжаню Эллис, Доминик Торн, Диего Луна, Педро Паскаль, Брайан Тайри Генри, Эд Скрейн

Описание: 19-летняя Тиш помолвлена с 22-летним скульптором Фонни. Они готовятся к свадьбе, Тиш ждёт ребёнка, когда Фонни обвиняют в изнасиловании пуэрториканки Виктории. Молодой человек отправляется отбывать наказание за преступление, которого не совершал - его подставил расист-полицейский. Тем временем Виктория покидает США, возвращается домой, а мать Тиш, Шерон, отправляется вслед за женщиной, чтобы найти доказательства невиновности Фонни.

Качество: BD Remux 1080p
Формат: MKV

Видео: MPEG-4 AVC, 1920x1080, 27.9 Mbit/s, 23.976 fps
Аудио#1: 48 kHz, AC3, 5.1, 640 Kbps | Дублированный | RUS |
Аудио#2: 48 kHz, DTS-HD MA, 7.1, 2554 Kbps | Оригинал | ENG |
скриншот  скриншот  скриншот  скриншот  скриншот  

General
Unique ID : 39214233743760185253071762105900470123 (0x1D8062FEDBC12860DD7A89072DFC0F6B)
Complete name : D:Video111If.Beale.Street.Could.Talk.2018.BDREMUX.1080p.seleZen.mkv
Format : Matroska
Format version : Version 4
File size : 25.9 GiB
Duration : 1 h 59 min
Overall bit rate mode : Variable
Overall bit rate : 31.1 Mb/s
Movie name : If Beale Street Could Talk 2018 from селезень
Encoded date : UTC 2019-06-20 10:23:55
Writing application : mkvmerge v33.1.0 ('Primrose') 64-bit
Writing library : libebml v1.3.7 + libmatroska v1.5.0

Video
ID : 1
Format : AVC
Format/Info : Advanced Video Codec
Format profile : High@L4.1
Format settings : CABAC / 4 Ref Frames
Format settings, CABAC : Yes
Format settings, Reference : 4 frames
Format settings, GOP : M=3, N=12
Codec ID : V_MPEG4/ISO/AVC
Duration : 1 h 59 min
Bit rate mode : Variable
Bit rate : 27.9 Mb/s
Maximum bit rate : 35.0 Mb/s
Width : 1 920 pixels
Height : 1 080 pixels
Display aspect ratio : 16:9
Frame rate mode : Constant
Frame rate : 23.976 (24000/1001) FPS
Color space : YUV
Chroma subsampling : 4:2:0
Bit depth : 8 bits
Scan type : Progressive
Bits/(Pixel*Frame) : 0.562
Stream size : 23.2 GiB (90%)
Language : English
Default : Yes
Forced : No

Audio #1
ID : 2
Format : AC-3
Format/Info : Audio Coding 3
Commercial name : Dolby Digital
Codec ID : A_AC3
Duration : 1 h 59 min
Bit rate mode : Constant
Bit rate : 640 kb/s
Channel(s) : 6 channels
Channel layout : L R C LFE Ls Rs
Sampling rate : 48.0 kHz
Frame rate : 31.250 FPS (1536 SPF)
Bit depth : 16 bits
Compression mode : Lossy
Stream size : 545 MiB (2%)
Title : Dub [License]
Language : Russian
Service kind : Complete Main
Default : Yes
Forced : Yes

Audio #2
ID : 3
Format : DTS XLL
Format/Info : Digital Theater Systems
Commercial name : DTS-HD Master Audio
Codec ID : A_DTS
Duration : 1 h 59 min
Bit rate mode : Variable
Bit rate : 2 554 kb/s
Channel(s) : 8 channels
Channel layout : C L R LFE Lb Rb Lss Rss
Sampling rate : 48.0 kHz
Frame rate : 93.750 FPS (512 SPF)
Bit depth : 16 bits
Compression mode : Lossless
Stream size : 2.12 GiB (8%)
Title : Original
Language : English
Default : No
Forced : No

Text #1
ID : 4
Format : UTF-8
Codec ID : S_TEXT/UTF8
Codec ID/Info : UTF-8 Plain Text
Duration : 1 h 56 min
Bit rate : 76 b/s
Count of elements : 1510
Stream size : 65.4 KiB (0%)
Title : Full
Language : Russian
Default : No
Forced : No

Text #2
ID : 5
Format : UTF-8
Codec ID : S_TEXT/UTF8
Codec ID/Info : UTF-8 Plain Text
Duration : 1 h 54 min
Bit rate : 52 b/s
Count of elements : 1412
Stream size : 44.4 KiB (0%)
Title : Full
Language : English
Default : No
Forced : No

Menu
00:00:00.000 : en:Глава 01
00:07:11.306 : en:Глава 02
00:13:43.031 : en:Глава 03
00:25:40.914 : en:Глава 04
00:32:50.177 : en:Глава 05
00:39:06.803 : en:Глава 06
00:46:38.337 : en:Глава 07
00:56:23.088 : en:Глава 08
01:06:14.512 : en:Глава 09
01:16:10.858 : en:Глава 10
01:21:24.421 : en:Глава 11
01:30:51.154 : en:Глава 12
01:39:53.654 : en:Глава 13
01:43:17.775 : en:Глава 14
01:49:23.640 : en:Глава 15
01:52:18.190 : en:Глава 16

pb.wtf



Скачать Если Бил-стрит могла бы заговорить через торрент http://img15.lostpic.net/2019/06/20/b7cb8c8b79b162f4ffa5392ed62ddba1.jpg Скачать фильм Если Бил-стрит могла бы заговорить через торрент бесплантно в хорошем качестве Описание: 19-летняя Тиш помолвлена с 22-летним скульптором Фонни. Они готовятся к свадьбе, Тиш ждёт ребёнка, когда Фонни обвиняют в ... 10 10 3
Торрент: Зарегистрирован [2019-06-20 10:42] · скачан: 30 раз
Статус: √ проверено
Размер: 25.9 GB
Как cкачать? Как скачать Если Бил-стрит могла бы заговорить через торрент | qTorrent

% Раздел Тема Автор DL S | L
Фильмы 2018 [DVDrip, WEB-DLRip, HDrip] (DUB, MVO) [ 2.18 GB ] Если Бил-стрит могла бы заговорить / If Beale Street Could Talk [2018 BDRip] MVO [] Twi7ter Скачать
2 | 0
Фильмы 2018 [DVDrip, WEB-DLRip, HDrip] (DUB, MVO) [ 1.46 GB ] Если Бил-стрит могла бы заговорить / If Beale Street Could Talk [2018 BDRip] MVO [] Twi7ter Скачать
3 | 0
Фильмы 2018 [DVDrip, WEB-DLRip, HDrip] (DUB, MVO) [ 2.53 GB ] Если Бил-стрит могла бы заговорить / If Beale Street Could Talk [2018 BDRip-AVC] 2xMVO [ HDRezka Studio] bober100 Скачать
1 | 0
Фильмы [HD 720p, 1080p] (Хороший звук DUB, MVO) [ 13.01 GB ] Если Бил-стрит могла бы заговорить / If Beale Street Could Talk [2018 BDRip 1080p] MVO [] bober100 Скачать
1 | 0
Фильмы 2018 [DVDrip, WEB-DLRip, HDrip] (DUB, MVO) [ 1.46 GB ] Если Бил-стрит могла бы заговорить / If Beale Street Could Talk [2018 BDRip] MVO [ Blu-Ray CEE] bober100 Скачать
1 | 0

28-11-2019 20:33  

Отключить всю рекламу на сайте

    Дорогой пользователь! Огромная просьба, поблагодарите релизера, оцените раздачу и оставьте свои комментарий, если Вы скачали Если Бил-стрит могла бы заговорить через торрент бесплатно! Внесите свою лепту в развитие PiratBit!
    Комментировать посты могут только пользователи прошедшие не сложную регистрацию
    Показать сообщения:    

    Если Бил-стрит могла бы заговорить через торрент
    Скачать бесплатно Если Бил-стрит могла бы заговорить
    Если Бил-стрит могла бы заговорить скачать торрент
    Если Бил-стрит могла бы заговорить смотреть онлайн
    Cкачать фильм Если Бил-стрит могла бы заговорить бесплатно
    Если Бил-стрит могла бы заговорить скачать торрент в хорошем качестве
    Если Бил-стрит могла бы заговорить смотреть онлайн бесплатно в хорошем качестве


    Вы не можете начинать темы
    Вы не можете отвечать на сообщения
    Вы не можете редактировать свои сообщения
    Вы не можете удалять свои сообщения
    Вы не можете голосовать в опросах
    Вы не можете прикреплять файлы к сообщениям
    Вы можете скачивать файлы