новый адрес пиратбит piratbit
MEGA NEWS Получи личный уникальный адрес сайта и защити себя от блокировок. Внимание количество ограничено!!!

iTunes

1+1

iTunes

мы

iTunes

1

iTunes

Чернобыль

iTunes

Ральф против интернета

Лицензия

ПШазам

Лицензия

Игра престолов

Лицензия

30
pack

ВАЖНО

!!Акция!!

Alien_RageХит недели

RePack

Resident Evil 21

ИГРА 18+

pack

RePack

Metro:Exodus

!!Акция!!

Alien_Rage

RePack

fifa19

RePack

Assassins Creed: Odyssey

RePack

NEED FOR SPEED™ PAYBACK

3 сезон

9 сезон

Бесстыжие 9 сезон

Все сериалы

все сериалы на PB.wtf

RePack

FAR CRY 5
Ребята, катастрофически не хватает 1900р. для оплаты серверов за АВГУСТ (всвязи с блокировками трафик упал в 3 раза), 1-2р., выручайте.
  

Джессика Джонс / Jessica Jones / Сезон: 3 / Серии: 1-13 из 13 (Ута Бризвитц, Розмари Родригез, Саймон Селлан Джоунс) [2019, Фантастика, боевик, драма, криминал, WEBRip] [MVO] (Profix Media) pb.wtf

Джессика Джонс через торрент pb.wtf

Размер: 7.79 GB | Добавлен: 3 мес. 15 д. назад | Торрент скачан:16 раз
Скачать  

20-06-2019 11:01 Джессика Джонс Скачать торрент  

Джессика ДжонсJessica Jones
Год выпуска: 2019
Страна: США
Жанр: Фантастика, боевик, драма, криминал
Продолжительность: ~00:50:00
Перевод: Профессиональный (многоголосый закадровый) Студия «Profix Media»
Режиссёр: Ута Бризвитц, Розмари Родригез, Саймон Селлан Джоунс

В ролях: Кристен Риттер, Рэйчел Тейлор, Ика Дэрвилл, Кэрри-Энн Мосс, Дэвид Теннант, Джанет МакТир, Дж.Р. Рамирез, Уил Трэвэл, Леа Гибсон, Сьюзи Абромейт
Описание: Главная героиня сериала Джессика Джонс готова была стать новой супергероиней в своём городе, однако что-то пошло не по плану. Девушка пережила трагические последствия своей деятельности, поэтому решила, что стоит своё свободное время посвятить чему-либо другому. Теперь Джессика Джонс пытается наладить личную жизнь и найти себя в новом деле. Джонс - частный детектив, который занимается расследованием странных преступлений,в которых могут быть замешаны люди, обладающие сверхспособностями. Главная героиня проводит свои дела в Нью-Йорке, открывая для себя самые тёмные уголки этого огромного мегаполиса.
ratingскриншот  

Раздача -- JuSSiKa

Качество: WEBRip
Формат: AVI
Видео: XviD, 720x400 (16:9), 23,976 fps, ~1500 kbps
Аудио Rus: MP3, 48 kHz, 2 ch, 128 kbps
Аудио Eng: MP3, 48 kHz, 2 ch, 128 kbps
Субтитры: отсутствуют
Полное имя : Jessica.Jones.S03.WEBRip.RusEng.Profix.Media\Jessica.Jones.S03E01.WEBRip.RusEng.Profix.Media.JuSSiKa.avi
Формат : AVI
Формат/Информация : Audio Video Interleave
Размер файла : 640 Мбайт
Продолжительность : 50 м. 55 с.
Общий поток : 1757 Кбит/сек
Программа кодирования : VirtualDubMod 1.5.10.3 (build 2550/release)
Библиотека кодирования : VirtualDubMod build 2550/release

Видео
Идентификатор : 0
Формат : MPEG-4 Visual
Профиль формата : Advanced Simple@L5
Настройки формата : BVOP1
Параметр BVOP формата : 1
Параметр QPel формата : Нет
Параметр GMC формата : Без точки перехода
Параметр матрицы формата : Default (H.263)
Идентификатор кодека : XVID
Идентификатор кодека/Подсказка : XviD
Продолжительность : 50 м. 55 с.
Битрейт : 1487 Кбит/сек
Ширина : 720 пикселей
Высота : 400 пикселей
Соотношение сторон : 16:9
Частота кадров : 23,976 (24000/1001) кадра/сек
Цветовое пространство : YUV
Субдискретизация насыщенности : 4:2:0
Битовая глубина : 8 бит
Тип развёртки : Прогрессивная
Метод сжатия : С потерями
Бит/(Пиксели*Кадры) : 0.215
Размер потока : 542 Мбайт (85%)
Библиотека кодирования : XviD 1.2.1 (UTC 2008-12-04)

Аудио #1
Идентификатор : 1
Формат : MPEG Audio
Версия формата : Version 1
Профиль формата : Layer 3
Настройки формата : Joint stereo / MS Stereo
Режим : Joint stereo
Расширение режима : MS Stereo
Идентификатор кодека : 55
Идентификатор кодека/Подсказка : MP3
Продолжительность : 50 м. 55 с.
Вид битрейта : Постоянный
Битрейт : 128 Кбит/сек
Каналы : 2 канала
Частота : 48,0 КГц
Метод сжатия : С потерями
Размер потока : 46,6 Мбайт (7%)
Выравнивание : Соединение по промежуткам
Продолжительность промежутка : 42 мс. (1,00 видеокадр)
Время предзагрузки промежутка : 504 мс.

Аудио #2
Идентификатор : 2
Формат : MPEG Audio
Версия формата : Version 1
Профиль формата : Layer 3
Настройки формата : Joint stereo / MS Stereo
Режим : Joint stereo
Расширение режима : MS Stereo
Идентификатор кодека : 55
Идентификатор кодека/Подсказка : MP3
Продолжительность : 50 м. 55 с.
Вид битрейта : Постоянный
Битрейт : 128 Кбит/сек
Каналы : 2 канала
Частота : 48,0 КГц
Метод сжатия : С потерями
Размер потока : 46,6 Мбайт (7%)
Выравнивание : Соединение по промежуткам
Продолжительность промежутка : 42 мс. (1,00 видеокадр)
Время предзагрузки промежутка : 504 мс.
скриншот  скриншот  скриншот  
Внимание! Раздача ведётся путём добавления новых серий; при каждом добавлении создаётся новый торрент. Чтобы начать докачку новой серии, пользователям необходимо сделать следующее:
(1) остановить скачивание,
(2) удалить старый торрент у себя из клиента (старые серии удалять не надо),
(3) скачать новый торрент и запустить его у себя в клиенте вместо старого, при этом указать клиенту путь в старую папку куда и должно происходить скачивание новых серий.

Ваш клиент при этом должен произвести хеширование (проверку) старой папки (если не производит сам - помогите ему сделать это), и будет докачивать только те серии которых у вас ещё нет. Старые серии при этом не удаляются, а продолжают раздаваться!

Eсли вы уже удалили старые серии, то предотвратить повторную закачку старых серий можно, отжав галочку в соответствующих местах при запуске нового торрента. По возможности, желательно не удалять старые серии как можно дольше чтобы релизёр не столько продолжал раздавать старые серии, а смог сконцентрироваться на новых.
pb.wtf



Скачать Джессика Джонс через торрент https://i106.fastpic.ru/big/2019/0619/8f/f7ab5267db413654953f719b3614928f.png Скачать фильм Джессика Джонс через торрент бесплантно в хорошем качестве Описание: Главная героиня сериала Джессика Джонс готова была стать новой супергероиней в своём городе, однако что-то пошло не по плану. ... 10 10 1
Торрент: Зарегистрирован [2019-07-08 06:38] · скачан: 16 раз
Статус: √ проверено
Размер: 7.79 GB
Как cкачать? Как скачать Джессика Джонс через торрент | qTorrent

% Раздел Тема Автор DL S | L
Зарубежные сериалы [ 41.21 GB ] Джессика Джонс / Marvel’s Jessica Jones / Сезон: 3 / Серии: 1-13 из 13 [2019 WEBRip 720p] MVO [NewStudio] bober100 Скачать
1 | 0
Зарубежные сериалы [ 86.24 GB ] Джессика Джонс / Marvel’s Jessica Jones / Сезон: 3 / Серии: 1-13 из 13 [2019 WEBRip 1080p] MVO [NewStudio] bober100 Скачать
1 | 0
Зарубежные сериалы [ 78.51 GB ] Джессика Джонс / Jessica Jones / Сезон: 3 / Серии: 1-13 из 13 [2019 UHD WEB-DL 2160p] MVO [LostFilm] sheker187 Скачать
1 | 0
Зарубежные сериалы [ 77.62 GB ] Джессика Джонс / Jessica Jones / Сезон: 3 / Серии: 1-13 из 13 [2019 UHD WEB-DL 2160p] MVO [TVShows] sheker187 Скачать
1 | 0
Зарубежные сериалы [ 9.24 GB ] Джессика Джонс / Jessica Jones / Сезон: 3 / Серии: 1-13 из 13 [2019 WEBRip] MVO [TVShows] bober100 Скачать
1 | 0
Зарубежные сериалы [ 26.52 GB ] Джессика Джонс / Jessica Jones / Сезон: 3 / Серии: 1-13 из 13 [2019 WEB-DL 1080p] [MVO] killermax2013 Скачать
1 | 0
Зарубежные сериалы [ 12.82 GB ] Джессика Джонс / Jessica Jones / Сезон: 3 / Серии: 1-13 из 13 [2019 WEB 720p] MVO [LostFilm] bober100 Скачать
3 | 0


>> Регистрируемся здесь <<






Отзывы и комментарии о схеме читаем и пишем здесь: ---> Отзывы и комментарии о схеме

Новые благодарочки в телеграм довольных пользователей:
скриншот   скриншот   скриншот   скриншот   скриншот
    Дорогой пользователь! Огромная просьба, поблагодарите релизера, оцените раздачу и оставьте свои комментарий, если Вы скачали Джессика Джонс через торрент бесплатно! Внесите свою лепту в развитие PiratBit!
    Комментировать посты могут только пользователи прошедшие не сложную регистрацию
    Показать сообщения:    

    Джессика Джонс через торрент
    Скачать бесплатно Джессика Джонс
    Джессика Джонс скачать торрент
    Джессика Джонс смотреть онлайн
    Cкачать фильм Джессика Джонс бесплатно
    Джессика Джонс скачать торрент в хорошем качестве
    Джессика Джонс смотреть онлайн бесплатно в хорошем качестве


    Вы не можете начинать темы
    Вы не можете отвечать на сообщения
    Вы не можете редактировать свои сообщения
    Вы не можете удалять свои сообщения
    Вы не можете голосовать в опросах
    Вы не можете прикреплять файлы к сообщениям
    Вы можете скачивать файлы