Ссылка на приватное зеркало всего за 1$. Внимание количество ограничено!!!


iTunes

1+1

iTunes

мы

WEB-DL

1

iTunes

Чернобыль

iTunes

Ральф против интернета

Лицензия

ПШазам

Лицензия

Оно 2

WEB-DL

30
pack

Вам бонус

ВАЖНО

!!Акция!!

Alien_RageХит недели

RePack

Resident Evil 21

ИГРА 18+

pack

RePack

jed

!!Акция!!

Alien_Rage

RePack

fifa19

RePack

Assassins Creed: Odyssey

RePack

NEED FOR SPEED™ PAYBACK

4 сезон

9 сезон

Бесстыжие 9 сезон

Все сериалы

все сериалы на PB.wtf

RePack

FAR CRY 5
Ребята, катастрофически не хватает 1900р. для оплаты серверов за Октябрь (всвязи с блокировками трафик упал в 3 раза), 1-2р., выручайте.
  

Бизнесмены (Акан Сатаев / Akan Satayev) [2018, драма, криминал, WEB-DLRip-AVC] [iTunes] pb.wtf

Бизнесмены через торрент pb.wtf

Раздают: 7 [ 0 KB/s ]
Размер: 1.48 GB | Добавлен: 5 мес. 25 д. назад | Торрент скачан:158 раз
Скачать  

20-06-2019 18:03 Бизнесмены Скачать торрент  

Бизнесмены

«Есть вещи, которые не имеют цены»

Страна: Казахстан
Жанр: драма, криминал
Год выпуска: 2018
Продолжительность: 01:34:16

Перевод: Не требуется
Субтитры: нет
Оригинальная аудиодорожка: русский

Режиссер: Акан Сатаев / Akan Satayev

В ролях: Аскар Ильясов, Айсулу Азимбаева, Шарип Серик, Расим Жубаев, Константин Крюков, Еркен Губашев, Санжар Мади, Дина Тасбулатова

Описание: 90-е годы прошлого века. Трое друзей, пытаясь наладить свою жизнь, сталкиваются с таким понятием, как бизнес. Однако бизнес - это всегда риск, и молодым предпринимателям придется пожертвовать многим ради успеха. Герои фильма становятся одними из первых, кто стоял у истоков рыночных отношений в Казахстане.



Релиз:

Автор рипа: stalkerok

Сэмпл

Качество видео: WEB-DLRip-AVC | Biznesmenyi.2018.WEB-DL.1080p.ELEKTRI4KA.UNIONGANG
Формат видео: MKV
Видео кодек: AVC
Аудио кодек: AC3
Видео: AVC, 1855 Кбит/сек, 1092x488 (2.25:1), 24 кадр/сек
Аудио: AC3, 384 Кбит/сек, 48 КГц, 5.1 - русский | iTunes
---[Information] [20.06.2019 20:18:54] x264 [info]: frame I:1242 Avg QP:15.20 size: 57913
---[Information] [20.06.2019 20:18:54] x264 [info]: frame P:29740 Avg QP:16.52 size: 20380
---[Information] [20.06.2019 20:18:54] x264 [info]: frame B:104782 Avg QP:18.41 size: 6051

General
Unique ID : 306114346635028548951610761115700249559 (0xE64B7A896700C2D8FF4D4832A6EB43D7)
Complete name : M:\temp\Biznesmeny\Biznesmeny.2018.WEB-DLRip.x264.Rus.stalkerok.New-Team.mkv
Format : Matroska
Format version : Version 4 / Version 2
File size : 1.48 GiB
Duration : 1 h 34 min
Overall bit rate : 2 241 kb/s
Movie name : Бизнесмены (2018) | Rip by stalkerok
Encoded date : UTC 2019-06-20 17:32:12
Writing application : mkvmerge v33.1.0 ('Primrose') 64-bit
Writing library : libebml v1.3.7 + libmatroska v1.5.0

Video
ID : 1
Format : AVC
Format/Info : Advanced Video Codec
Format profile : High@L4.1
Format settings, CABAC : Yes
Format settings, ReFrames : 12 frames
Codec ID : V_MPEG4/ISO/AVC
Duration : 1 h 34 min
Bit rate : 1 856 kb/s
Width : 1 092 pixels
Height : 488 pixels
Display aspect ratio : 2.25:1
Frame rate mode : Constant
Frame rate : 24.000 FPS
Color space : YUV
Chroma subsampling : 4:2:0
Bit depth : 8 bits
Scan type : Progressive
Bits/(Pixel*Frame) : 0.145
Stream size : 1.22 GiB (83%)
Title : Бизнесмены (2018) | Rip by stalkerok
Writing library : x264 core 157 r2969 d4099dd
Encoding settings : cabac=1 / ref=12 / deblock=1:-3:-2 / analyse=0x3:0x133 / me=umh / subme=11 / psy=1 / psy_rd=1.00:0.00 / mixed_ref=1 / me_range=32 / chroma_me=1 / trellis=2 / 8x8dct=1 / cqm=0 / deadzone=21,11 / fast_pskip=0 / chroma_qp_offset=-2 / threads=12 / lookahead_threads=3 / sliced_threads=0 / nr=0 / decimate=1 / interlaced=0 / bluray_compat=0 / constrained_intra=0 / bframes=14 / b_pyramid=2 / b_adapt=2 / b_bias=0 / direct=3 / weightb=1 / open_gop=0 / weightp=2 / keyint=240 / keyint_min=23 / scenecut=40 / intra_refresh=0 / rc_lookahead=60 / rc=crf / mbtree=0 / crf=17.8 / qcomp=0.65 / qpmin=0 / qpmax=69 / qpstep=4 / vbv_maxrate=50000 / vbv_bufsize=62500 / crf_max=0.0 / nal_hrd=none / filler=0 / ip_ratio=1.40 / pb_ratio=1.30 / aq=3:0.80 / zones=129450,135763,q=32
Default : Yes
Forced : No

Audio
ID : 2
Format : AC-3
Format/Info : Audio Coding 3
Mode extension : CM (complete main)
Format settings, Endianness : Big
Codec ID : A_AC3
Duration : 1 h 34 min
Bit rate mode : Constant
Bit rate : 384 kb/s
Channel(s) : 6 channels
Channel positions : Front: L C R, Side: L R, LFE
Sampling rate : 48.0 kHz
Frame rate : 31.250 FPS (1536 spf)
Compression mode : Lossy
Stream size : 259 MiB (17%)
Language : Russian
Default : Yes
Forced : No
pb.wtf



Скачать Бизнесмены через торрент http://i6.imageban.ru/out/2017/09/18/2ff75c0c358795c5946784cc1680714d.png Скачать фильм Бизнесмены через торрент бесплантно в хорошем качестве Описание: 90-е годы прошлого века. Трое друзей, пытаясь наладить свою жизнь, сталкиваются с таким понятием, как бизнес. Однако бизнес - это ... 10 10 4
Info! Золотая раздача, скачанное не засчитывается.
Торрент: Зарегистрирован [2019-06-20 18:03] · скачан: 158 раз
Статус: √ проверено
Размер: 1.48 GB
Как cкачать? Как скачать Бизнесмены через торрент | qTorrent

% Раздел Тема Автор DL S | L
Наши новые фильмы 2018-2019 [ 1.46 GB ] Бизнесмены / Biznesmeny [2018 WEB-DLRip] bober100 Скачать
1 | 0
T Наши фильмы (мультфильмы) cо спонсором показа (Новинки AVI/MKV) [ 4.16 GB ] Бизнесмены / Biznesmeny [2018 WEB-DL 1080p] bober100 Скачать
1 | 0
T Наши фильмы (мультфильмы) cо спонсором показа (Новинки AVI/MKV) [ 3.67 GB ] Бизнесмены / Biznesmeny [2018 WEB-DL 720p] bober100 Скачать
1 | 0
Анальный секс [ 335 MB ] Бизнесмены балуются большой попой служанки / Roxie [ Anal Sex Hardcore Blonde Big Cock Group Sex Fetish Big Ass SATRip] tier-kun Скачать
1 | 0
Кино СССР [ 1.08 GB ] Про бизнесмена Фому [1993 DVDRip] Varyzh Скачать
1 | 0

28-11-2019 20:33  

Отключить всю рекламу на сайте

    Дорогой пользователь! Огромная просьба, поблагодарите релизера, оцените раздачу и оставьте свои комментарий, если Вы скачали Бизнесмены через торрент бесплатно! Внесите свою лепту в развитие PiratBit!
    Комментировать посты могут только пользователи прошедшие не сложную регистрацию
    Показать сообщения:    

    Бизнесмены через торрент
    Скачать бесплатно Бизнесмены
    Бизнесмены скачать торрент
    Бизнесмены смотреть онлайн
    Cкачать фильм Бизнесмены бесплатно
    Бизнесмены скачать торрент в хорошем качестве
    Бизнесмены смотреть онлайн бесплатно в хорошем качестве


    Вы не можете начинать темы
    Вы не можете отвечать на сообщения
    Вы не можете редактировать свои сообщения
    Вы не можете удалять свои сообщения
    Вы не можете голосовать в опросах
    Вы не можете прикреплять файлы к сообщениям
    Вы можете скачивать файлы