новый адрес
Ссылка на приватное зеркало всего за 1$. Внимание количество ограничено!!!

iTunes

1+1

iTunes

мы

WEB-DL

1

iTunes

Чернобыль

iTunes

Ральф против интернета

Лицензия

ПШазам

Лицензия

Оно 2

Лицензия

30
pack

Вам бонус

ВАЖНО

!!Акция!!

Alien_RageХит недели

RePack

Resident Evil 21

ИГРА 18+

pack

RePack

jed

!!Акция!!

Alien_Rage

RePack

fifa19

RePack

Assassins Creed: Odyssey

RePack

NEED FOR SPEED™ PAYBACK

3 сезон

9 сезон

Бесстыжие 9 сезон

Все сериалы

все сериалы на PB.wtf

RePack

FAR CRY 5
Ребята, катастрофически не хватает 1900р. для оплаты серверов за Октябрь (всвязи с блокировками трафик упал в 3 раза), 1-2р., выручайте.
  

Если Бил-стрит могла бы заговорить / If Beale Street Could Talk (Барри Дженкинс) [2018, Драма, мелодрама, криминал, BDRip-AVC] 2xMVO [Лицензия, HDRezka Studio] pb.wtf

Если Бил-стрит могла бы заговорить через торрент pb.wtf

Размер: 2.53 GB | Добавлен: 5 мес. 21 д. назад | Торрент скачан:42 раза
Скачать  

21-06-2019 07:41 Если Бил-стрит могла бы заговорить Скачать торрент  

Если Бил-стрит могла бы заговорить / If Beale Street Could Talk
Год выпуска: 2018
Страна: США
Жанр: Драма, мелодрама, криминал
Продолжительность: 01:59:05
Перевод:

Профессиональный многоголосый | Лицензия
Профессиональный многоголосый | HDRezka Studio

Субтитры: Русские (форс., полные), Английские (полные, SDH)

Режиссер: Барри Дженкинс

rating

В ролях: Кики Лэйн, Стэфан Джеймс, Реджина Кинг, Колман Доминго, Тейона Паррис, Майкл Бич, Онжаню Эллис, Доминик Торн, Диего Луна, Педро Паскаль, Брайан Тайри Генри, Эд Скрейн

Описание: 19-летняя Тиш помолвлена с 22-летним скульптором Фонни. Они готовятся к свадьбе, Тиш ждёт ребёнка, когда Фонни обвиняют в изнасиловании пуэрториканки Виктории. Молодой человек отправляется отбывать наказание за преступление, которого не совершал - его подставил расист-полицейский. Тем временем Виктория покидает США, возвращается домой, а мать Тиш, Шерон, отправляется вслед за женщиной, чтобы найти доказательства невиновности Фонни.

Качество: BDRip-AVC
Формат: MKV

Видео: 1024x512 (2:1), 23,976 fps, x264 ~1 955 kbps avg, 0.156 bit/pixel
Аудио#1: 48 kHz, AC3 Dolby Digital, 3/2 (L,C,R,l,r) + LFE ch, ~448.00 kbps avg | RUS (Лицензия)
Аудио#2: 48 kHz, AC3 Dolby Digital, 2 (L,R) ch, ~192.00 kbps avg | RUS (HDRezka Studio)
Аудио#3: 48 kHz, AC3 Dolby Digital, 3/2 (L,C,R,l,r) + LFE ch, ~448.00 kbps avg | ENG
скриншот  скриншот  скриншот  скриншот  скриншот  

Общее
Уникальный идентификатор : 17933523038971098767118186022847218471 (0xD7DDEF37E41F2A8110A87005E158327)
Полное имя : F:OlLanDGroupIf.Beale.Street.Could.Talk.2018.BDRip(AVC).OllanDGroup.mkv
Формат : Matroska
Версия формата : Version 4 / Version 2
Размер файла : 2,53 Гбайт
Продолжительность : 1 ч. 59 м.
Общий поток : 3042 Кбит/сек
Название фильма : If Beale Street Could Talk (2018) #TorpedoUK#
Дата кодирования : UTC 2019-06-20 13:39:35
Программа кодирования : mkvmerge v29.0.0 ('Like It Or Not') 64-bit
Библиотека кодирования : libebml v1.3.6 + libmatroska v1.4.9
IMDB : tt7125860
TMDB : movie/465914

Видео
Идентификатор : 1
Формат : AVC
Формат/Информация : Advanced Video Codec
Профиль формата : High@L4.1
Параметр CABAC формата : Да
Параметр ReFrames формата : 10 кадров
Идентификатор кодека : V_MPEG4/ISO/AVC
Продолжительность : 1 ч. 59 м.
Битрейт : 1955 Кбит/сек
Ширина : 1024 пикселя
Высота : 512 пикселей
Соотношение сторон : 2,000
Режим частоты кадров : Постоянный
Частота кадров : 23,976 (24000/1001) кадра/сек
Цветовое пространство : YUV
Субдискретизация насыщенности : 4:2:0
Битовая глубина : 8 бит
Тип развёртки : Прогрессивная
Бит/(Пиксели*Кадры) : 0.156
Размер потока : 1,62 Гбайт (64%)
Библиотека кодирования : x264 core 146 r2538 121396c
Настройки программы : cabac=1 / ref=10 / deblock=1:-3:-3 / analyse=0x3:0x113 / me=umh / subme=11 / psy=1 / psy_rd=0.98:0.04 / mixed_ref=1 / me_range=48 / chroma_me=1 / trellis=2 / 8x8dct=1 / cqm=0 / deadzone=21,11 / fast_pskip=1 / chroma_qp_offset=-3 / threads=6 / lookahead_threads=1 / sliced_threads=0 / nr=0 / decimate=1 / interlaced=0 / bluray_compat=0 / constrained_intra=0 / bframes=11 / b_pyramid=2 / b_adapt=2 / b_bias=0 / direct=3 / weightb=1 / open_gop=0 / weightp=2 / keyint=240 / keyint_min=23 / scenecut=40 / intra_refresh=0 / rc_lookahead=40 / rc=2pass / mbtree=0 / bitrate=1955 / ratetol=1.0 / qcomp=0.60 / qpmin=0 / qpmax=69 / qpstep=4 / cplxblur=20.0 / qblur=0.5 / vbv_maxrate=50000 / vbv_bufsize=62500 / nal_hrd=none / filler=0 / ip_ratio=1.40 / pb_ratio=1.30 / aq=1:1.00
Язык : English
Default : Да
Forced : Нет

Аудио #1
Идентификатор : 2
Формат : AC-3
Формат/Информация : Audio Coding 3
Расширение режима : CM (complete main)
Параметр Endianness формата : Big
Идентификатор кодека : A_AC3
Продолжительность : 1 ч. 59 м.
Вид битрейта : Постоянный
Битрейт : 448 Кбит/сек
Каналы : 6 каналов
Расположение каналов : Front: L C R, Side: L R, LFE
Частота : 48,0 КГц
Частота кадров : 31,250 кадров/сек (1536 spf)
Битовая глубина : 16 бит
Метод сжатия : С потерями
Размер потока : 382 Мбайт (15%)
Заголовок : MVO [License]
Язык : Russian
Default : Да
Forced : Нет

Аудио #2
Идентификатор : 3
Формат : AC-3
Формат/Информация : Audio Coding 3
Расширение режима : CM (complete main)
Параметр Endianness формата : Big
Идентификатор кодека : A_AC3
Продолжительность : 1 ч. 59 м.
Вид битрейта : Постоянный
Битрейт : 192 Кбит/сек
Каналы : 2 канала
Расположение каналов : Front: L R
Частота : 48,0 КГц
Частота кадров : 31,250 кадров/сек (1536 spf)
Битовая глубина : 16 бит
Метод сжатия : С потерями
Размер потока : 164 Мбайт (6%)
Заголовок : MVO [HDRezka Studio]
Язык : Russian
Default : Нет
Forced : Нет

Аудио #3
Идентификатор : 4
Формат : AC-3
Формат/Информация : Audio Coding 3
Расширение режима : CM (complete main)
Параметр Endianness формата : Big
Идентификатор кодека : A_AC3
Продолжительность : 1 ч. 59 м.
Вид битрейта : Постоянный
Битрейт : 448 Кбит/сек
Каналы : 6 каналов
Расположение каналов : Front: L C R, Side: L R, LFE
Частота : 48,0 КГц
Частота кадров : 31,250 кадров/сек (1536 spf)
Битовая глубина : 16 бит
Метод сжатия : С потерями
Размер потока : 382 Мбайт (15%)
Заголовок : [Original]
Язык : English
Default : Нет
Forced : Нет

Текст #1
Идентификатор : 5
Формат : UTF-8
Идентификатор кодека : S_TEXT/UTF8
Идентификатор кодека/Информация : UTF-8 Plain Text
Продолжительность : 27 с. 419 мс.
Битрейт : 241 бит/сек
Count of elements : 5
Размер потока : 829 байт (0%)
Заголовок : Forced
Язык : Russian
Default : Да
Forced : Нет

Текст #2
Идентификатор : 6
Формат : UTF-8
Идентификатор кодека : S_TEXT/UTF8
Идентификатор кодека/Информация : UTF-8 Plain Text
Продолжительность : 1 ч. 52 м.
Битрейт : 78 бит/сек
Count of elements : 1308
Размер потока : 64,4 Кбайт (0%)
Заголовок : Full
Язык : Russian
Default : Нет
Forced : Нет

Текст #3
Идентификатор : 7
Формат : UTF-8
Идентификатор кодека : S_TEXT/UTF8
Идентификатор кодека/Информация : UTF-8 Plain Text
Продолжительность : 1 ч. 56 м.
Битрейт : 52 бит/сек
Count of elements : 1413
Размер потока : 44,4 Кбайт (0%)
Заголовок : Full
Язык : English
Default : Нет
Forced : Нет

Текст #4
Идентификатор : 8
Формат : UTF-8
Идентификатор кодека : S_TEXT/UTF8
Идентификатор кодека/Информация : UTF-8 Plain Text
Продолжительность : 1 ч. 58 м.
Битрейт : 55 бит/сек
Count of elements : 1612
Размер потока : 48,7 Кбайт (0%)
Заголовок : SDH
Язык : English
Default : Нет
Forced : Нет

Меню
00:00:00.000 : en:Chapter 1
00:07:11.306 : en:Chapter 2
00:13:43.031 : en:Chapter 3
00:16:26.736 : en:Chapter 4
00:25:40.914 : en:Chapter 5
00:29:03.075 : en:Chapter 6
00:32:50.177 : en:Chapter 7
00:39:06.803 : en:Chapter 8
00:41:52.260 : en:Chapter 9
00:46:38.337 : en:Chapter 10
00:56:23.088 : en:Chapter 11
01:01:46.453 : en:Chapter 12
01:06:14.512 : en:Chapter 13
01:11:51.807 : en:Chapter 14
01:16:10.858 : en:Chapter 15
01:21:24.421 : en:Chapter 16
01:24:23.558 : en:Chapter 17
01:30:51.112 : en:Chapter 18
01:33:44.285 : en:Chapter 19
01:37:16.956 : en:Chapter 20
01:39:53.613 : en:Chapter 21
01:43:17.775 : en:Chapter 22
01:49:23.640 : en:Chapter 23
01:52:18.190 : en:Chapter 24

pb.wtf



Скачать Если Бил-стрит могла бы заговорить через торрент http://img15.lostpic.net/2019/06/20/b7cb8c8b79b162f4ffa5392ed62ddba1.jpg Скачать фильм Если Бил-стрит могла бы заговорить через торрент бесплантно в хорошем качестве Описание: 19-летняя Тиш помолвлена с 22-летним скульптором Фонни. Они готовятся к свадьбе, Тиш ждёт ребёнка, когда Фонни обвиняют в ... 10 10 3
Торрент: Зарегистрирован [2019-06-21 07:41] · скачан: 42 раз
Статус: √ проверено
Размер: 2.53 GB
Как cкачать? Как скачать Если Бил-стрит могла бы заговорить через торрент | qTorrent

% Раздел Тема Автор DL S | L
Фильмы 2018 [DVDrip, WEB-DLRip, HDrip] (DUB, MVO) [ 2.18 GB ] Если Бил-стрит могла бы заговорить / If Beale Street Could Talk [2018 BDRip] MVO [] Twi7ter Скачать
5 | 0
Фильмы 2018 [DVDrip, WEB-DLRip, HDrip] (DUB, MVO) [ 1.46 GB ] Если Бил-стрит могла бы заговорить / If Beale Street Could Talk [2018 BDRip] MVO [] Twi7ter Скачать
4 | 3
Фильмы [HD 720p, 1080p] (Хороший звук DUB, MVO) [ 13.01 GB ] Если Бил-стрит могла бы заговорить / If Beale Street Could Talk [2018 BDRip 1080p] MVO [] bober100 Скачать
1 | 0
Фильмы 2018 [DVDrip, WEB-DLRip, HDrip] (DUB, MVO) [ 1.46 GB ] Если Бил-стрит могла бы заговорить / If Beale Street Could Talk [2018 BDRip] MVO [ Blu-Ray CEE] bober100 Скачать
1 | 0
Фильмы (Blu-ray, BD-Remux, HDDVD) [ 25.9 GB ] Если Бил-стрит могла бы заговорить / If Beale Street Could Talk [2018 BD Remux 1080p] MVO [] bober100 Скачать
1 | 0

28-11-2019 20:33  

Отключить всю рекламу на сайте

    Дорогой пользователь! Огромная просьба, поблагодарите релизера, оцените раздачу и оставьте свои комментарий, если Вы скачали Если Бил-стрит могла бы заговорить через торрент бесплатно! Внесите свою лепту в развитие PiratBit!
    Комментировать посты могут только пользователи прошедшие не сложную регистрацию
    Показать сообщения:    

    Если Бил-стрит могла бы заговорить через торрент
    Скачать бесплатно Если Бил-стрит могла бы заговорить
    Если Бил-стрит могла бы заговорить скачать торрент
    Если Бил-стрит могла бы заговорить смотреть онлайн
    Cкачать фильм Если Бил-стрит могла бы заговорить бесплатно
    Если Бил-стрит могла бы заговорить скачать торрент в хорошем качестве
    Если Бил-стрит могла бы заговорить смотреть онлайн бесплатно в хорошем качестве


    Вы не можете начинать темы
    Вы не можете отвечать на сообщения
    Вы не можете редактировать свои сообщения
    Вы не можете удалять свои сообщения
    Вы не можете голосовать в опросах
    Вы не можете прикреплять файлы к сообщениям
    Вы можете скачивать файлы