Мега распродажа FORZA HORIZON 4 ULTIMATE+ВСЕ DLC+ОНЛАЙН всего за 499р. 349 руб. (супер цена). Внимание количество ограничено!!!

iTunes

1+1

iTunes

мы

iTunes

1

1 сезон

Чернобыль

1 сезон

Ральф против интернета

Лицензия

ПШазам

8 сезон

Игра престолов

Лицензия

30
pack

ВАЖНО

!!Акция!!

Alien_RageХит недели

RePack

Resident Evil 21

ИГРА 18+

pack

RePack

Metro:Exodus

!!Акция!!

Alien_Rage

RePack

fifa19

RePack

Assassins Creed: Odyssey

RePack

NEED FOR SPEED™ PAYBACK

3 сезон

9 сезон

Бесстыжие 9 сезон

Все сериалы

все сериалы на PB.wtf

RePack

FAR CRY 5
Ребята, катастрофически не хватает 2730р. для оплаты серверов за ИЮНЬ (всвязи с блокировками трафик упал в 3 раза), 1-2р., выручайте.
  

Партнёры по преступлению / Partners in Crime / Сезон: 1 / Серии: 1-6 из 6 (Эдвард Холл) [2015, Драма, Криминал, Детектив, Приключения, BDRip 1080p] 2xMVO [Showjet, ТВЦ] pb.wtf

Партнёры по преступлению через торрент pb.wtf

Размер: 27.54 GB | Добавлен: 27 д. назад | Торрент скачан:7 раз
Скачать  

21-06-2019 08:24 Партнёры по преступлению Скачать торрент  

Партнёры по преступлению / Partners in Crime Год выпуска: 2015
Страна: Великобритания
Жанр: Драма, криминал, детектив, приключения
Продолжительность: ~00:55:00
Перевод: Профессиональный (многоголосый закадровый) | Showjet
Перевод: Профессиональный (многоголосый закадровый) | ТВЦ
Оригинальная аудиодорожка: Английский
Субтитры: Русские (Марина Падалко), Английские
Реклама: Отсутствует

Режиссёр: Эдвард Холл

В ролях: Джессика Рэйн, Мэттью Стир, Дэвид Уоллиамс, Пол Бреннен, Джонатан Филлипс, Бретт Картер, Роберт Уайтлок, Мадлен Аппиа, Камилла Бипут, Анкута Брибэни др.

Описание: Детективный сериал по мотивам произведений Агаты Кристи. Действие первых 3 серий происходит в 1952 году. Супружеская пара Бересфордов, Томми и Таппенс, оказались вовлечены в паутину международного шпионажа благодаря случайному знакомству в поезде.

Качество: BDRip 1080p
Контейнер: MKV

Видео: 1920x1080, 23.976 fps, MPEG-4 AVC, ~9500 kbps
Аудио Rus: AC3, 48.0 kHz, 3/2 (L,C,R,l,r) + LFE ch, 384 kbps | Showjet
Аудио Rus: AC3, 48.0 kHz, 2ch, 192 kbps | ТВЦ
Аудио Eng: DTS, 48.0 kHz, 3/2 (L,C,R,l,r) + LFE ch, 1509 kbps


Формат субтитров: softsub (SRT)

01. The Secret Adversary: Part 1
02. The Secret Adversary: Part 2
03. The Secret Adversary: Part 3
04. N or M?: Part 1
05. N or M?: Part 2
06. N or M?: Part 3
Общее
Уникальный идентификатор : 326455789209359760652461138983846533347 (0xF59919163ED049FBDE04338518F1D8E3)
Полное имя : F:\Partners.In.Crime.UK.S01.BDRip.x264.Rus.Eng-ParovozN@EniaHD\Partners.In.Crime.UK.S01E03.1080p.BDRip.x264.Rus.Eng-@EniaHD.mkv
Формат : Matroska
Версия формата : Version 4
Размер файла : 4,59 Гбайт
Продолжительность : 54 м. 48 с.
Общий поток : 12,0 Мбит/сек
Название фильма : Partners.In.Crime.UK.S01E03.1080p.BluRay.x264-YELLOWBiRD-ParovozN@EniaHD
Дата кодирования : UTC 2019-06-18 14:24:28
Программа кодирования : mkvmerge v32.0.0 ('Astral Progressions') 32-bit
Библиотека кодирования : libebml v1.3.7 + libmatroska v1.5.0

Видео
Идентификатор : 1
Формат : AVC
Формат/Информация : Advanced Video Codec
Профиль формата : High@L4.1
Настройки формата : CABAC / 4 Ref Frames
Параметр CABAC формата : Да
Параметр RefFrames формата : 4 кадра
Идентификатор кодека : V_MPEG4/ISO/AVC
Продолжительность : 54 м. 47 с.
Битрейт : 9893 Кбит/сек
Ширина : 1920 пикселей
Высота : 1080 пикселей
Соотношение сторон : 16:9
Режим частоты кадров : Постоянный
Частота кадров : 23,976 (24000/1001) кадра/сек
Цветовое пространство : YUV
Субдискретизация насыщенности : 4:2:0
Битовая глубина : 8 бит
Тип развёртки : Прогрессивная
Бит/(Пиксели*Кадры) : 0.199
Размер потока : 3,79 Гбайт (83%)
Библиотека кодирования : x264 core 148 r2665 a01e339
Настройки программы : cabac=1 / ref=4 / deblock=1:-3:-3 / analyse=0x3:0x113 / me=umh / subme=8 / psy=1 / psy_rd=1.00:0.25 / mixed_ref=1 / me_range=24 / chroma_me=1 / trellis=1 / 8x8dct=1 / cqm=0 / deadzone=21,11 / fast_pskip=1 / chroma_qp_offset=-4 / threads=12 / lookahead_threads=2 / sliced_threads=0 / nr=0 / decimate=1 / interlaced=0 / bluray_compat=0 / constrained_intra=0 / bframes=3 / b_pyramid=2 / b_adapt=2 / b_bias=0 / direct=3 / weightb=1 / open_gop=0 / weightp=2 / keyint=240 / keyint_min=24 / scenecut=40 / intra_refresh=0 / rc_lookahead=50 / rc=2pass / mbtree=1 / bitrate=9893 / ratetol=1.0 / qcomp=0.60 / qpmin=0 / qpmax=69 / qpstep=4 / cplxblur=20.0 / qblur=0.5 / ip_ratio=1.40 / aq=1:0.50
Default : Да
Forced : Нет

Аудио #1
Идентификатор : 2
Формат : AC-3
Формат/Информация : Audio Coding 3
Коммерческое название : Dolby Digital
Идентификатор кодека : A_AC3
Продолжительность : 54 м. 46 с.
Вид битрейта : Постоянный
Битрейт : 384 Кбит/сек
Каналы : 6 каналов
Channel layout : L R C LFE Ls Rs
Частота : 48,0 КГц
Частота кадров : 31,250 кадров/сек (1536 SPF)
Битовая глубина : 16 бит
Метод сжатия : С потерями
Размер потока : 150 Мбайт (3%)
Заголовок : MVO (Showjet)
Язык : Russian
ServiceKind/String : Complete Main
Default : Да
Forced : Нет

Аудио #2
Идентификатор : 3
Формат : AC-3
Формат/Информация : Audio Coding 3
Коммерческое название : Dolby Digital
Идентификатор кодека : A_AC3
Продолжительность : 54 м. 48 с.
Вид битрейта : Постоянный
Битрейт : 192 Кбит/сек
Каналы : 2 канала
Channel layout : L R
Частота : 48,0 КГц
Частота кадров : 31,250 кадров/сек (1536 SPF)
Битовая глубина : 16 бит
Метод сжатия : С потерями
Размер потока : 75,3 Мбайт (2%)
Заголовок : MVO (ТВЦ)
Язык : Russian
ServiceKind/String : Complete Main
Default : Нет
Forced : Нет

Аудио #3
Идентификатор : 4
Формат : DTS
Формат/Информация : Digital Theater Systems
Идентификатор кодека : A_DTS
Продолжительность : 54 м. 48 с.
Вид битрейта : Постоянный
Битрейт : 1509 Кбит/сек
Каналы : 6 каналов
Channel layout : C L R Ls Rs LFE
Частота : 48,0 КГц
Частота кадров : 93,750 кадра/сек (512 SPF)
Битовая глубина : 24 бит
Метод сжатия : С потерями
Размер потока : 591 Мбайт (13%)
Язык : English
Default : Нет
Forced : Нет

Текст #1
Идентификатор : 5
Формат : UTF-8
Идентификатор кодека : S_TEXT/UTF8
Идентификатор кодека/Информация : UTF-8 Plain Text
Продолжительность : 53 м. 23 с.
Битрейт : 95 бит/сек
ElementCount : 710
Размер потока : 37,2 Кбайт (0%)
Язык : Russian
Default : Нет
Forced : Нет

Текст #2
Идентификатор : 6
Формат : UTF-8
Идентификатор кодека : S_TEXT/UTF8
Идентификатор кодека/Информация : UTF-8 Plain Text
Продолжительность : 53 м. 23 с.
Битрейт : 58 бит/сек
ElementCount : 738
Размер потока : 22,8 Кбайт (0%)
Язык : English
Default : Нет
Forced : Нет

Меню
00:00:00.000 : en:00:00:00.000
00:08:49.988 : en:00:08:49.988
00:20:45.703 : en:00:20:45.703
00:29:34.106 : en:00:29:34.106
00:36:44.285 : en:00:36:44.285
00:46:00.383 : en:00:46:00.383
pb.wtf



Скачать Партнёры по преступлению через торрент https://funkyimg.com/i/2UTKC.jpg Скачать фильм Партнёры по преступлению через торрент бесплантно в хорошем качестве Описание: Детективный сериал по мотивам произведений Агаты Кристи. Действие первых 3 серий происходит в 1952 году. Супружеская пара ... 7 10 3
Торрент: Зарегистрирован [2019-06-21 08:24] · скачан: 7 раз
Статус: √ проверено
Размер: 27.54 GB
Как cкачать? Как скачать Партнёры по преступлению через торрент | qTorrent

% Раздел Тема Автор DL S | L
Зарубежные сериалы [ 4.1 GB ] Партнёры по преступлению / Agatha Christie's Partners in Crime / Сезон: 1 / Серии 1-6 из 6 [2015 HDTVRip) VO [Project Web Money] GEKADOL Скачать
1 | 0


>> Регистрируемся здесь <<






Отзывы и комментарии о схеме читаем и пишем здесь: ---> Отзывы и комментарии о схеме

Новые благодарочки в телеграм довольных пользователей:
скриншот   скриншот   скриншот   скриншот   скриншот
    Дорогой пользователь! Огромная просьба, поблагодарите релизера, оцените раздачу и оставьте свои комментарий, если Вы скачали Партнёры по преступлению через торрент бесплатно! Внесите свою лепту в развитие PiratBit!
    Комментировать посты могут только пользователи прошедшие не сложную регистрацию
    Показать сообщения:    

    Партнёры по преступлению через торрент
    Скачать бесплатно Партнёры по преступлению
    Партнёры по преступлению скачать торрент
    Партнёры по преступлению смотреть онлайн
    Cкачать фильм Партнёры по преступлению бесплатно
    Партнёры по преступлению скачать торрент в хорошем качестве
    Партнёры по преступлению смотреть онлайн бесплатно в хорошем качестве


    Вы не можете начинать темы
    Вы не можете отвечать на сообщения
    Вы не можете редактировать свои сообщения
    Вы не можете удалять свои сообщения
    Вы не можете голосовать в опросах
    Вы не можете прикреплять файлы к сообщениям
    Вы можете скачивать файлы