MEGA NEWS Получи личный уникальный адрес сайта и защити себя от блокировок. Внимание количество ограничено!!!

iTunes

1+1

iTunes

мы

iTunes

1

iTunes

Чернобыль

iTunes

Ральф против интернета

Лицензия

ПШазам

Лицензия

Игра престолов

Лицензия

30
pack

ВАЖНО

!!Акция!!

Alien_RageХит недели

RePack

Resident Evil 21

ИГРА 18+

pack

RePack

Metro:Exodus

!!Акция!!

Alien_Rage

RePack

fifa19

RePack

Assassins Creed: Odyssey

RePack

NEED FOR SPEED™ PAYBACK

3 сезон

9 сезон

Бесстыжие 9 сезон

Все сериалы

все сериалы на PB.wtf

RePack

FAR CRY 5
Ребята, катастрофически не хватает 1900р. для оплаты серверов за АВГУСТ (всвязи с блокировками трафик упал в 3 раза), 1-2р., выручайте.
  

Стукач / Le Doulos (Жан-Пьер Мельвиль) [1962, триллер, криминал, BDRip 720p by msltel] DVO pb.wtf

Стукач через торрент pb.wtf

Размер: 4.66 GB | Добавлен: 4 мес. назад | Торрент скачан:3 раза
Скачать  

21-06-2019 09:23 Стукач Скачать торрент  

Название: Стукач
Оригинальное название: Le Doulos
Год выпуска: 1962
Страна: Франция, Италия
Жанр: триллер, криминал
Продолжительность: 01:48:56
Перевод: закадровый двухголосый

Режиссер: Жан-Пьер Мельвиль
В ролях: Жан-Поль Бельмондо, Серж Реджани, Жан Дезайи, Рене Лефевр, Марсель Кювелье, Филипп Марш, Фабьен Дали, Моника Хеннесси, Кристиан Люд

О фильме: Два лучших друга Сильена находятся по разные стороны закона: Морис — вор, а Клэн — полицейский комиссар. Сильен периодически помогает то одному, то другому, являясь одновременно преступником и полицейским осведомителем. Правда, вечно это продолжаться не может. Морис, после удачного ограбления и убийства своего сообщника, спрятав пистолет и похищенные драгоценности, приходит к нему и предлагает поучаствовать в новом крупном деле. Сильену предстоит тяжёлый выбор... По мотивам романа Пьера Лесу.



Качество: BDRip 720p
Формат: MKV
Видео: MPEG-4 AVC, 5737 Кбит/с, 1200x720, 24.000 кадр/с
Аудио 1: русский, AC3, 192 kbps, 2 ch, 48 kHz [закадровый двухголосый, Film Prestige]
Аудио 2: французский, AC3, 192 kbps, 2 ch, 48 kHz [оригинал]
Субтитры 1: русские (Film prestige)
Субтитры 2: английские
Главы/чаптеры
Общее
Уникальный идентификатор : 202622917233750022209559589745552864320 (0x986FC11E8546C56EA87E2C3584053440)
Полное имя : D:\Video\Стукач.1963.BDRip 720p by msltel.mkv
Формат : Matroska
Версия формата : Version 4
Размер файла : 4,66 Гбайт
Продолжительность : 1 ч. 48 м.
Общий поток : 6123 Кбит/сек
Название фильма : Rip by msltel
Дата кодирования : UTC 2019-06-21 06:53:44
Программа кодирования : mkvmerge v8.2.0 ('World of Adventure') 64bit
Библиотека кодирования : libebml v1.3.1 + libmatroska v1.4.2

Видео
Идентификатор : 1
Формат : AVC
Формат/Информация : Advanced Video Codec
Профиль формата : High@L4.1
Настройки формата : CABAC / 9 Ref Frames
Параметр CABAC формата : Да
Параметр RefFrames формата : 9 кадров
Идентификатор кодека : V_MPEG4/ISO/AVC
Продолжительность : 1 ч. 48 м.
Битрейт : 5737 Кбит/сек
Ширина : 1200 пикселей
Высота : 720 пикселей
Соотношение сторон : 5:3
Режим частоты кадров : Постоянный
Частота кадров : 24,000 кадра/сек
Цветовое пространство : YUV
Субдискретизация насыщенности : 4:2:0
Битовая глубина : 8 бит
Тип развёртки : Прогрессивная
Бит/(Пиксели*Кадры) : 0.277
Размер потока : 4,37 Гбайт (94%)
Библиотека кодирования : x264 core 157 r2935 545de2f
Настройки программы : cabac=1 / ref=9 / deblock=1:-2:-2 / analyse=0x3:0x113 / me=umh / subme=11 / psy=1 / psy_rd=1.00:0.15 / mixed_ref=1 / me_range=32 / chroma_me=1 / trellis=2 / 8x8dct=1 / cqm=0 / deadzone=21,11 / fast_pskip=0 / chroma_qp_offset=-3 / threads=6 / lookahead_threads=1 / sliced_threads=0 / nr=0 / decimate=1 / interlaced=0 / bluray_compat=0 / constrained_intra=0 / bframes=10 / b_pyramid=2 / b_adapt=2 / b_bias=0 / direct=1 / weightb=1 / open_gop=0 / weightp=2 / keyint=230 / keyint_min=23 / scenecut=40 / intra_refresh=0 / rc_lookahead=40 / rc=crf / mbtree=1 / crf=21.0 / qcomp=0.60 / qpmin=0 / qpmax=69 / qpstep=4 / vbv_maxrate=50000 / vbv_bufsize=62500 / crf_max=0.0 / nal_hrd=none / filler=0 / ip_ratio=1.40 / aq=1:1.00
Язык : French
Default : Да
Forced : Нет

Аудио #1
Идентификатор : 2
Формат : AC-3
Формат/Информация : Audio Coding 3
Коммерческое название : Dolby Digital
Идентификатор кодека : A_AC3
Продолжительность : 1 ч. 48 м.
Вид битрейта : Постоянный
Битрейт : 192 Кбит/сек
Каналы : 2 канала
ChannelLayout : L R
Частота : 48,0 КГц
Частота кадров : 31,250 кадров/сек (1536 SPF)
Битовая глубина : 16 бит
Метод сжатия : С потерями
Размер потока : 150 Мбайт (3%)
Заголовок : DVO Film Prestige
Язык : Russian
ServiceKind/String : Complete Main
Default : Да
Forced : Нет

Аудио #2
Идентификатор : 3
Формат : AC-3
Формат/Информация : Audio Coding 3
Коммерческое название : Dolby Digital
Идентификатор кодека : A_AC3
Продолжительность : 1 ч. 48 м.
Вид битрейта : Постоянный
Битрейт : 192 Кбит/сек
Каналы : 2 канала
ChannelLayout : L R
Частота : 48,0 КГц
Частота кадров : 31,250 кадров/сек (1536 SPF)
Битовая глубина : 16 бит
Метод сжатия : С потерями
Размер потока : 150 Мбайт (3%)
Заголовок : original
Язык : French
ServiceKind/String : Complete Main
Default : Нет
Forced : Нет

Текст #1
Идентификатор : 4
Формат : UTF-8
Идентификатор кодека : S_TEXT/UTF8
Идентификатор кодека/Информация : UTF-8 Plain Text
Продолжительность : 1 ч. 47 м.
Битрейт : 83 бит/сек
ElementCount : 1022
Размер потока : 65,3 Кбайт (0%)
Заголовок : русские Film prestige
Язык : Russian
Default : Нет
Forced : Нет

Текст #2
Идентификатор : 5
Формат : UTF-8
Идентификатор кодека : S_TEXT/UTF8
Идентификатор кодека/Информация : UTF-8 Plain Text
Продолжительность : 1 ч. 48 м.
Битрейт : 35 бит/сек
ElementCount : 897
Размер потока : 28,5 Кбайт (0%)
Заголовок : английские
Язык : English
Default : Нет
Forced : Нет

Меню
00:00:00.000 : :Chapter 1
00:05:02.000 : :Chapter 2
00:16:05.250 : :Chapter 3
00:24:34.500 : :Chapter 4
00:29:37.165 : :Chapter 5
00:36:20.083 : :Chapter 6
00:40:39.208 : :Chapter 7
00:51:22.875 : :Chapter 8
01:00:58.583 : :Chapter 9
01:12:40.000 : :Chapter 10
01:26:47.791 : :Chapter 11
01:41:35.666 : :Chapter 12
01:48:55.666 : :Chapter 13
pb.wtf



Скачать Стукач через торрент https://d.radikal.ru/d34/1906/8b/b96823e7aa84.jpg Скачать фильм Стукач через торрент бесплантно в хорошем качестве О фильме: Два лучших друга Сильена находятся по разные стороны закона: Морис — вор, а Клэн — полицейский комиссар. Сильен периодически ... 5 10 1
Info! Золотая раздача, скачанное не засчитывается.
Торрент: Зарегистрирован [2019-06-21 09:23] · скачан: 3 раз
Статус: √ проверено
Размер: 4.66 GB
Как cкачать? Как скачать Стукач через торрент | qTorrent

% Раздел Тема Автор DL S | L
Классика зарубежного кино [ 13.96 GB ] Стукач / Le Doulos [1962 BDRip 1080p by msltel] DVO msltel Скачать
1 | 0


>> Регистрируемся здесь <<






Отзывы и комментарии о схеме читаем и пишем здесь: ---> Отзывы и комментарии о схеме

Новые благодарочки в телеграм довольных пользователей:
скриншот   скриншот   скриншот   скриншот   скриншот

21-06-2019 11:49 Стукач Скачать торрент  

Топик был перенесен из форума Фильмы [HD 720p, 1080p] (Хороший звук DUB, MVO) в форум Классика зарубежного кино


bober100pb.wtf



    Дорогой пользователь! Огромная просьба, поблагодарите релизера, оцените раздачу и оставьте свои комментарий, если Вы скачали Стукач через торрент бесплатно! Внесите свою лепту в развитие PiratBit!
    Комментировать посты могут только пользователи прошедшие не сложную регистрацию
    Показать сообщения:    

    Стукач через торрент
    Скачать бесплатно Стукач
    Стукач скачать торрент
    Стукач смотреть онлайн
    Cкачать фильм Стукач бесплатно
    Стукач скачать торрент в хорошем качестве
    Стукач смотреть онлайн бесплатно в хорошем качестве


    Вы не можете начинать темы
    Вы не можете отвечать на сообщения
    Вы не можете редактировать свои сообщения
    Вы не можете удалять свои сообщения
    Вы не можете голосовать в опросах
    Вы не можете прикреплять файлы к сообщениям
    Вы можете скачивать файлы