Ссылка на приватное зеркало всего за 1$. Внимание количество ограничено!!!

iTunes

1+1

iTunes

мы

WEB-DL

1

iTunes

Чернобыль

iTunes

Ральф против интернета

Лицензия

ПШазам

Лицензия

Оно 2

Лицензия

30
pack

Вам бонус

ВАЖНО

!!Акция!!

Alien_RageХит недели

RePack

Resident Evil 21

ИГРА 18+

pack

RePack

jed

!!Акция!!

Alien_Rage

RePack

fifa19

RePack

Assassins Creed: Odyssey

RePack

NEED FOR SPEED™ PAYBACK

3 сезон

9 сезон

Бесстыжие 9 сезон

Все сериалы

все сериалы на PB.wtf

RePack

FAR CRY 5
Ребята, катастрофически не хватает 1900р. для оплаты серверов за Октябрь (всвязи с блокировками трафик упал в 3 раза), 1-2р., выручайте.
  

Все пути ведут в Доннибрук / Donnybrook (Тим Саттон) [2018, драма, WEB-DLRip-AVC] DUB [R5] pb.wtf

Все пути ведут в Доннибрук через торрент pb.wtf

Размер: 1.55 GB | Добавлен: 5 мес. 22 д. назад | Торрент скачан:58 раз
Скачать  

21-06-2019 10:11 Все пути ведут в Доннибрук Скачать торрент  

Все пути ведут в Доннибрук / Donnybrook
Год выпуска: 2018
Страна: США
Жанр: драма
Продолжительность: 01:41:57
Перевод: Дублированный | R5
Субтитры: Русские (форс., полные)

Режиссер: Тим Саттон

rating

В ролях: Фрэнк Грилло, Джейми Белл, Джеймс Бэдж Дэйл, Маргарет Куэлли, Крис Браунинг, Пэт Хили, Адам Бартли, Джеймс Хеберт, Валери Джейн Паркер, Тед Опалински

Описание: Солдат Эрл и Бензопила Ангус оба существуют за границей приличного общества. Они не знакомы друг с другом, и их практически ничего не связывает, кроме единственного принципа — всегда идти до конца. Заботливый муж, готовый на всё ради больной жены, и безжалостный и кровожадный наркоторговец — они в итоге встретятся в клетке для боев без правил. И победителем выйдет только один.

Качество: WEB-DLRip-AVC
Формат: MKV

Видео: 1024x426 (2.40:1), 23,976 fps, x264 ~1 787 kbps avg, 0.171 bit/pixel
Аудио: 48 kHz, AC3 Dolby Digital Plus, 3/2 (L,C,R,l,r) + LFE ch, ~384.00 kbps avg | RUS
скриншот  скриншот  скриншот  скриншот  

Общее
Уникальный идентификатор : 157380216060039311071833603030964604850 (0x766653BB47AF29399552088708718FB2)
Полное имя : F:OlLanDGroupDonnybrook.2018.AMZN.WEB-DLRip(AVC).OlLanDGroup.mkv
Формат : Matroska
Версия формата : Version 4 / Version 2
Размер файла : 1,55 Гбайт
Продолжительность : 1 ч. 41 м.
Общий поток : 2171 Кбит/сек
Название фильма : DONNYBROOK_2018 #TorpedoUK#
Дата кодирования : UTC 2019-06-21 09:30:53
Программа кодирования : mkvmerge v29.0.0 ('Like It Or Not') 64-bit
Библиотека кодирования : libebml v1.3.6 + libmatroska v1.4.9

Видео
Идентификатор : 1
Формат : AVC
Формат/Информация : Advanced Video Codec
Профиль формата : High@L4.1
Параметр CABAC формата : Да
Параметр ReFrames формата : 10 кадров
Идентификатор кодека : V_MPEG4/ISO/AVC
Продолжительность : 1 ч. 41 м.
Битрейт : 1787 Кбит/сек
Ширина : 1024 пикселя
Высота : 426 пикселей
Соотношение сторон : 2,40:1
Режим частоты кадров : Постоянный
Частота кадров : 23,976 (24000/1001) кадра/сек
Цветовое пространство : YUV
Субдискретизация насыщенности : 4:2:0
Битовая глубина : 8 бит
Тип развёртки : Прогрессивная
Бит/(Пиксели*Кадры) : 0.171
Размер потока : 1,27 Гбайт (82%)
Библиотека кодирования : x264 core 146 r2538 121396c
Настройки программы : cabac=1 / ref=10 / deblock=1:-2:-3 / analyse=0x3:0x113 / me=umh / subme=10 / psy=1 / psy_rd=0.95:0.07 / mixed_ref=1 / me_range=48 / chroma_me=1 / trellis=2 / 8x8dct=1 / cqm=0 / deadzone=21,11 / fast_pskip=1 / chroma_qp_offset=-3 / threads=6 / lookahead_threads=1 / sliced_threads=0 / nr=0 / decimate=1 / interlaced=0 / bluray_compat=0 / constrained_intra=0 / bframes=11 / b_pyramid=2 / b_adapt=2 / b_bias=0 / direct=3 / weightb=1 / open_gop=0 / weightp=2 / keyint=240 / keyint_min=23 / scenecut=40 / intra_refresh=0 / rc_lookahead=40 / rc=2pass / mbtree=0 / bitrate=1787 / ratetol=1.0 / qcomp=0.60 / qpmin=0 / qpmax=69 / qpstep=4 / cplxblur=20.0 / qblur=0.5 / vbv_maxrate=50000 / vbv_bufsize=62500 / nal_hrd=none / filler=0 / ip_ratio=1.40 / pb_ratio=1.30 / aq=1:1.00
Язык : English
Default : Да
Forced : Нет

Аудио
Идентификатор : 2
Формат : AC-3
Формат/Информация : Audio Coding 3
Расширение режима : CM (complete main)
Параметр Endianness формата : Big
Идентификатор кодека : A_AC3
Продолжительность : 1 ч. 41 м.
Вид битрейта : Постоянный
Битрейт : 384 Кбит/сек
Каналы : 6 каналов
Расположение каналов : Front: L C R, Side: L R, LFE
Частота : 48,0 КГц
Частота кадров : 31,250 кадров/сек (1536 spf)
Битовая глубина : 16 бит
Метод сжатия : С потерями
Размер потока : 280 Мбайт (18%)
Заголовок : [DUB] DD 5.1 @ 384 kbps (R5)
Язык : Russian
Default : Да
Forced : Нет

Текст #1
Идентификатор : 3
Формат : UTF-8
Идентификатор кодека : S_TEXT/UTF8
Идентификатор кодека/Информация : UTF-8 Plain Text
Продолжительность : 44 м. 44 с.
Битрейт : 0 бит/сек
Count of elements : 2
Размер потока : 54,0 байт (0%)
Заголовок : Forced
Язык : Russian
Default : Да
Forced : Нет

Текст #2
Идентификатор : 4
Формат : UTF-8
Идентификатор кодека : S_TEXT/UTF8
Идентификатор кодека/Информация : UTF-8 Plain Text
Продолжительность : 1 ч. 34 м.
Битрейт : 31 бит/сек
Count of elements : 488
Размер потока : 21,6 Кбайт (0%)
Заголовок : Full
Язык : Russian
Default : Нет
Forced : Нет

pb.wtf



Скачать Все пути ведут в Доннибрук через торрент https://c.radikal.ru/c15/1906/3e/3793160b7089.png Скачать фильм Все пути ведут в Доннибрук через торрент бесплантно в хорошем качестве Описание: Солдат Эрл и Бензопила Ангус оба существуют за границей приличного общества. Они не знакомы друг с другом, и их практически ... 7 10 3
Торрент: Зарегистрирован [2019-06-21 10:11] · скачан: 58 раз
Статус: √ проверено
Размер: 1.55 GB
Как cкачать? Как скачать Все пути ведут в Доннибрук через торрент | qTorrent

% Раздел Тема Автор DL S | L
Фильмы [HD 720p, 1080p] (Хороший звук DUB, MVO) [ 10.01 GB ] Все пути ведут в Доннибрук / Donnybrook [2018 BDRip 1080p] DUB [] bober100 Скачать
1 | 0
Фильмы 2018 [DVDrip, WEB-DLRip, HDrip] (DUB, MVO) [ 1.46 GB ] Все пути ведут в Доннибрук / Donnybrook [2018 BDRip] - [] Twi7ter Скачать
3 | 3
Фильмы (WEB-DL 720p, 1080p) [ 5.91 GB ] Все пути ведут в Доннибрук / Donnybrook [2018 WEB-DL 1080p] DUB [R5] bober100 Скачать
2 | 0
Фильмы 2018 [DVDrip, WEB-DLRip, HDrip] (DUB, MVO) [ 1.46 GB ] Все пути ведут в Доннибрук / Donnybrook [2018 WEB-DLRip] DUB [R5] bober100 Скачать
2 | 0

28-11-2019 20:33  

Отключить всю рекламу на сайте

    Дорогой пользователь! Огромная просьба, поблагодарите релизера, оцените раздачу и оставьте свои комментарий, если Вы скачали Все пути ведут в Доннибрук через торрент бесплатно! Внесите свою лепту в развитие PiratBit!
    Комментировать посты могут только пользователи прошедшие не сложную регистрацию
    Показать сообщения:    

    Все пути ведут в Доннибрук через торрент
    Скачать бесплатно Все пути ведут в Доннибрук
    Все пути ведут в Доннибрук скачать торрент
    Все пути ведут в Доннибрук смотреть онлайн
    Cкачать фильм Все пути ведут в Доннибрук бесплатно
    Все пути ведут в Доннибрук скачать торрент в хорошем качестве
    Все пути ведут в Доннибрук смотреть онлайн бесплатно в хорошем качестве


    Вы не можете начинать темы
    Вы не можете отвечать на сообщения
    Вы не можете редактировать свои сообщения
    Вы не можете удалять свои сообщения
    Вы не можете голосовать в опросах
    Вы не можете прикреплять файлы к сообщениям
    Вы можете скачивать файлы