новый адрес
Ссылка на приватное зеркало всего за 1$. Внимание количество ограничено!!!

iTunes

1+1

iTunes

мы

WEB-DL

1

iTunes

Чернобыль

iTunes

Ральф против интернета

Лицензия

ПШазам

Лицензия

Оно 2

Лицензия

30
pack

Вам бонус

ВАЖНО

!!Акция!!

Alien_RageХит недели

RePack

Resident Evil 21

ИГРА 18+

pack

RePack

jed

!!Акция!!

Alien_Rage

RePack

fifa19

RePack

Assassins Creed: Odyssey

RePack

NEED FOR SPEED™ PAYBACK

3 сезон

9 сезон

Бесстыжие 9 сезон

Все сериалы

все сериалы на PB.wtf

RePack

FAR CRY 5
Ребята, катастрофически не хватает 1900р. для оплаты серверов за Октябрь (всвязи с блокировками трафик упал в 3 раза), 1-2р., выручайте.
  

Хранилище / Vault (Том ДеНуччи / Tom DeNucci) [2019, криминал, драма, WEB-DLRip-AVC] MVO [HDrezka Studio] pb.wtf

Хранилище через торрент pb.wtf

Раздают: 12 [ 0 KB/s ] Качают: 1 [ 0 KB/s ]
Размер: 1.46 GB | Добавлен: 5 мес. 21 д. назад | Торрент скачан:310 раз
Скачать  

21-06-2019 13:07 Хранилище Скачать торрент  

Хранилище
Vault

Страна: США
Жанр: криминал, драма
Год выпуска: 2019
Продолжительность: 01:39:11

Перевод: Профессиональный (многоголосый, закадровый) [HDrezka Studio]
Субтитры: английские (полные, SDH)
Оригинальная аудиодорожка: английский

Режиссер: Том ДеНуччи / Tom DeNucci

В ролях: Тео Росси, Клайв Стэнден, Самира Уайли, Чазз Пальминтери, Дон Джонсон, Уильям Форсайт, Шон Рейнгголд, Чак Цито, Винсент Пасторе, Эрик Лютес, Берт Янг, Антонио Цупо

Описание: Действие фильма, основанного на реальных событиях, развивается в 1975 году вокруг Дойса и Чаки — мелких преступников, которые в начале криминальной карьеры грабили магазины. Со временем они доросли до ограблений банков, но вскоре на их след вышла полиция, а парни получили длительные сроки заключения. В тюрьме друзья познакомились с французским бандитом Джерри, работающим на босса итальянской мафии, который предложил им организовать и осуществить крупное ограбление. В итоге Дойс и Чаки соглашаются украсть тридцать миллионов долларов, спрятанных в хранилище маленького городка, но есть одна проблема: деньги принадлежат мафии...



Релиз:

Автор рипа: stalkerok

Сэмпл

Качество видео: WEB-DLRip-AVC | Vault.2019.1080p.AMZN.WEB-DL.DDP5.1.H.264-NTG
Формат видео: MKV
Видео кодек: AVC
Аудио кодек: AAC, AC3
Видео: AVC, 1519 Кбит/сек, 1058x448 (2.35:1), 23,976 кадр/сек
Аудио №1: AAC, 198 Кбит/сек, 48 КГц, 2.0 - русский
Аудио №2: AC3, 384 Кбит/сек, 48 КГц, 5.1 - английский
---[Information] [21.06.2019 14:20:36] x264 [info]: frame I:1093 Avg QP:16.40 size: 53054
---[Information] [21.06.2019 14:20:36] x264 [info]: frame P:31628 Avg QP:19.97 size: 16239
---[Information] [21.06.2019 14:20:36] x264 [info]: frame B:109964 Avg QP:21.27 size: 5075

General
Unique ID : 9982262198171225982460832437825487940 (0x78283864D04350DD61124355CC8C444)
Complete name : M:\temp\Vault (2019)\Vault.2019.WEB-DLRip.x264.Rus.Eng.stalkerok.New-Team.mkv
Format : Matroska
Format version : Version 4
File size : 1.46 GiB
Duration : 1 h 39 min
Overall bit rate : 2 103 kb/s
Movie name : Vault (2019) | Rip by stalkerok
Encoded date : UTC 2019-06-21 11:33:02
Writing application : mkvmerge v33.1.0 ('Primrose') 64-bit
Writing library : libebml v1.3.7 + libmatroska v1.5.0

Video
ID : 1
Format : AVC
Format/Info : Advanced Video Codec
Format profile : High@L4.1
Format settings : CABAC / 12 Ref Frames
Format settings, CABAC : Yes
Format settings, RefFrames : 12 frames
Codec ID : V_MPEG4/ISO/AVC
Duration : 1 h 39 min
Bit rate : 1 519 kb/s
Width : 1 058 pixels
Height : 448 pixels
Display aspect ratio : 2.35:1
Frame rate mode : Constant
Frame rate : 23.976 FPS
Color space : YUV
Chroma subsampling : 4:2:0
Bit depth : 8 bits
Scan type : Progressive
Bits/(Pixel*Frame) : 0.134
Stream size : 1.05 GiB (72%)
Title : Vault (2019) | Rip by stalkerok
Writing library : x264 core 157 r2969 d4099dd
Encoding settings : cabac=1 / ref=12 / deblock=1:-3:-2 / analyse=0x3:0x133 / me=umh / subme=11 / psy=1 / psy_rd=1.00:0.00 / mixed_ref=1 / me_range=32 / chroma_me=1 / trellis=2 / 8x8dct=1 / cqm=0 / deadzone=21,11 / fast_pskip=0 / chroma_qp_offset=-2 / threads=12 / lookahead_threads=3 / sliced_threads=0 / nr=0 / decimate=0 / interlaced=0 / bluray_compat=0 / constrained_intra=0 / bframes=14 / b_pyramid=2 / b_adapt=2 / b_bias=0 / direct=3 / weightb=1 / open_gop=0 / weightp=2 / keyint=240 / keyint_min=23 / scenecut=40 / intra_refresh=0 / rc_lookahead=60 / rc=2pass / mbtree=0 / bitrate=1519 / ratetol=1.0 / qcomp=0.65 / qpmin=0 / qpmax=69 / qpstep=4 / cplxblur=20.0 / qblur=0.5 / vbv_maxrate=50000 / vbv_bufsize=62500 / nal_hrd=none / filler=0 / ip_ratio=1.40 / pb_ratio=1.30 / aq=1:0.80 / zones=136064,142684,q=32
Default : Yes
Forced : No

Audio #1
ID : 2
Format : AAC LC
Format/Info : Advanced Audio Codec Low Complexity
Codec ID : A_AAC-2
Duration : 1 h 39 min
Bit rate : 198 kb/s
Channel(s) : 2 channels
Channel layout : L R
Sampling rate : 48.0 kHz
Frame rate : 46.875 FPS (1024 SPF)
Compression mode : Lossy
Stream size : 140 MiB (9%)
Language : Russian
Default : Yes
Forced : No

Audio #2
ID : 3
Format : AC-3
Format/Info : Audio Coding 3
Commercial name : Dolby Digital
Codec ID : A_AC3
Duration : 1 h 39 min
Bit rate mode : Constant
Bit rate : 384 kb/s
Channel(s) : 6 channels
Channel layout : L R C LFE Ls Rs
Sampling rate : 48.0 kHz
Frame rate : 31.250 FPS (1536 SPF)
Bit depth : 16 bits
Compression mode : Lossy
Stream size : 272 MiB (18%)
Language : English
Service kind : Complete Main
Default : No
Forced : No

Text #1
ID : 4
Format : UTF-8
Codec ID : S_TEXT/UTF8
Codec ID/Info : UTF-8 Plain Text
Duration : 1 h 33 min
Bit rate : 57 b/s
Count of elements : 1147
Stream size : 39.4 KiB (0%)
Title : Full
Language : English
Default : No
Forced : No

Text #2
ID : 5
Format : UTF-8
Codec ID : S_TEXT/UTF8
Codec ID/Info : UTF-8 Plain Text
Duration : 1 h 33 min
Bit rate : 60 b/s
Count of elements : 1255
Stream size : 41.5 KiB (0%)
Title : SDH
Language : English
Default : No
Forced : No
pb.wtf



Скачать Хранилище через торрент http://i6.imageban.ru/out/2017/09/18/2ff75c0c358795c5946784cc1680714d.png Скачать фильм Хранилище через торрент бесплантно в хорошем качестве Описание: Действие фильма, основанного на реальных событиях, развивается в 1975 году вокруг Дойса и Чаки — мелких преступников, которые в ... 9.5 10 2
Info! Золотая раздача, скачанное не засчитывается.
Торрент: Зарегистрирован [2019-06-21 13:07] · скачан: 310 раз
Статус: T временная
Размер: 1.46 GB
Как cкачать? Как скачать Хранилище через торрент | qTorrent

% Раздел Тема Автор DL S | L
Фильмы 2017 [DVDrip, WEB-DLRip, HDrip] (DUB, MVO) [ 1.42 GB ] Хранилище / The Vault [2017 BDRip] MVO bober100 Скачать
1 | 0
T Фильмы (WEB-DL 720p, 1080p) [ 6.51 GB ] Хранилище / Vault [2019 WEB-DL 1080p] MVO [HDRezka Studio] bober100 Скачать
1 | 0
T Фильмы (WEB-DL 720p, 1080p) [ 3.7 GB ] Хранилище / Vault [2019 WEB-DL 720p] MVO [HDRezka Studio] bober100 Скачать
1 | 0
T Фильмы 2019 [DVDrip, WEB-DLRip, HDrip] (DUB, MVO) [ 1.46 GB ] Хранилище / Vault [2019 BDRip] MVO [HDRezka Studio] bober100 Скачать
1 | 0
Фильмы 2017 [DVDrip, WEB-DLRip, HDrip] (DUB, MVO) [ 1.71 GB ] Хранилище / The Vault [2017 WEB-DLRip-AVC] MVO bober100 Скачать
1 | 0
Фильмы [HD 720p, 1080p] (Хороший звук DUB, MVO) [ 7.67 GB ] Хранилище / The Vault [2017 BDRip 1080p ] MVO Ворон Скачать
1 | 0
Фильмы (Blu-ray, BD-Remux, HDDVD) [ 14.45 GB ] Хранилище / The Vault [2017 BD Remux 1080p] MVO bober100 Скачать
1 | 0

28-11-2019 20:33  

Отключить всю рекламу на сайте

    Дорогой пользователь! Огромная просьба, поблагодарите релизера, оцените раздачу и оставьте свои комментарий, если Вы скачали Хранилище через торрент бесплатно! Внесите свою лепту в развитие PiratBit!
    Комментировать посты могут только пользователи прошедшие не сложную регистрацию
    Показать сообщения:    

    Хранилище через торрент
    Скачать бесплатно Хранилище
    Хранилище скачать торрент
    Хранилище смотреть онлайн
    Cкачать фильм Хранилище бесплатно
    Хранилище скачать торрент в хорошем качестве
    Хранилище смотреть онлайн бесплатно в хорошем качестве


    Вы не можете начинать темы
    Вы не можете отвечать на сообщения
    Вы не можете редактировать свои сообщения
    Вы не можете удалять свои сообщения
    Вы не можете голосовать в опросах
    Вы не можете прикреплять файлы к сообщениям
    Вы можете скачивать файлы