2 сезон

iTunes

MVO

1

2 сезон

iTunes

iTunes

1 сезон

RePack

30

Новинка

ВАЖНО

ИГРА 18+

pack

RePack

MK11
pack

Легкие деньги

RePack

jed

RePack

fifa19

RePack

RDR2

RePack

NEED FOR SPEED™ PAYBACK

4 сезон

9 сезон

Бесстыжие 9 сезон

Все сериалы

все сериалы на PB.wtf

RePack

FAR CRY 5

Anonymous, добрый вечер, мы не успеваем собрать деньги на оплату серверов за декабрь и январь, помогите нам пожалуйста в это трудное время. В качестве благодарности мы отключим Вам всю рекламу на сайте (укажите свой ник в строку Ваше имя)!

×
  
Magnet ссылка

BBC. Земля: Взгляд из космоса / Earth from space / Сезон: 1 / Серии: 1-4 из 4 (Барни Ревилл) [2019, Документальный, космос, природа, флора, фауна, HDTV 1080i] VO pb.wtf

BBC. Земля: Взгляд из космоса через торрент pb.wtf

Размер: 8.79 GB | Добавлен: 1 год 6 мес. назад | Торрент скачан:184 раза
Скачать  

22-06-2019 04:10 BBC. Земля: Взгляд из космоса Скачать торрент  

BBC. Земля: Взгляд из космоса / Earth from space Год выпуска: 2019
Страна: Великобритания
Жанр: Документальный, космос, природа, флора, фауна
Продолжительность: ~ 00:51:41
Перевод: Профессиональный (одноголосый) Contentica
Субтитры: отсутствуют

Режиссер: Барни Ревилл

rating

В ролях: Чиветель Эджиофор

Описание: Камеры, установленные в космосе, рассказывают истории о жизни на нашей планете с совершенно нового ракурса, тем самым совершая для нас удивительные открытия, показывая ее невероятные цвета и узоры, а также то, как быстро они меняются.

Качество: HDTV 1080i
Формат: MKV

Видео: 1920x1080 (16:9), 25 fps, AVC (Н.264), High@L4, 5771 kbps, 25fps, 0.111 bit/pixel
Аудио#1: Русский 48 kHz, AC3 Dolby Digital, 2/0 (L,R) ch, ~192.00 kbps avg
Аудио#2: Английский 48 kHz, MPEG Layer 2, 2 ch, ~192.00 kbps avg
01. Новая перспектива / A New Perspective
Камеры в космосе рассказывают истории жизни на нашей планете с совершенно новой точки зрения.
02. Ореолы планеты / Patterned Planet
Камеры в космосе показывают истории самых замечательных моделей и форм Земли.
03. Красочная планета / Colourful Planet
Камеры в космосе показывают замечательные истории позади самых интригующих цветов Земли.
04. Изменение планеты / Changing Planet
Камеры в космосе показывают, что Земля быстро меняется. Эти изображения могут вдохновить нас на помощь.

скриншот  скриншот  скриншот  скриншот  скриншот  

скриншот  скриншот  скриншот  скриншот  скриншот  

скриншот  скриншот  скриншот  скриншот  скриншот  

скриншот  скриншот  скриншот  скриншот  скриншот  

скриншот  скриншот  скриншот  скриншот  

Complete name : F:\Наладки\01. Новая перспектива.mkv
Format : Matroska
Format version : Version 4 / Version 2
File size : 2.27 GiB
Duration : 51 min 41 s
Overall bit rate : 6 280 kb/s
Encoded date : UTC 2019-06-18 17:37:18
Writing application : mkvmerge v6.6.0 ('The Edge Of The In Between') built on Dec 1 2013 17:55:00
Writing library : libebml v1.3.0 + libmatroska v1.4.1

Video
ID : 1
Format : AVC
Format/Info : Advanced Video Codec
Format profile :
Format settings : CABAC / 4 Ref Frames
Format settings, CABAC : Yes
Format settings, ReFrames : 4 frames
Codec ID : V_MPEG4/ISO/AVC
Duration : 51 min 41 s
Bit rate : 5 771 kb/s
Width : 1 920 pixels
Height : 1 080 pixels
Display aspect ratio : 16:9
Frame rate mode : Constant
Frame rate : 25.000 FPS
Standard : Component
Color space : YUV
Chroma subsampling : 4:2:0
Bit depth : 8 bits
Scan type : Interlaced
Scan type, store method : Separated fields
Scan order : Top Field First
Bits/(Pixel*Frame) : 0.111
Stream size : 2.08 GiB (92%)
Default : Yes
Forced : No
Color range : Limited
Color primaries : BT.709
Transfer characteristics : BT.709
Matrix coefficients : BT.709

Audio #1
ID : 2
Format : AC-3
Format/Info : Audio Coding 3
Codec ID : A_AC3
Duration : 51 min 41 s
Bit rate mode : Constant
Bit rate : 192 kb/s
Channel(s) : 2 channels
Channel positions : Front: L R
Sampling rate : 48.0 kHz
Frame rate : 31.250 FPS (1536 SPF)
Bit depth : 16 bits
Compression mode : Lossy
Stream size : 71.0 MiB (3%)
Language : Russian
Service kind : Complete Main
Default : Yes
Forced : Yes

Audio #2
ID : 3
Format : MPEG Audio
Format version : Version 1
Format profile : Layer 2
Codec ID : A_MPEG/L2
Codec ID/Hint : MP2
Duration : 51 min 41 s
Bit rate mode : Constant
Bit rate : 192 kb/s
Channel(s) : 2 channels
Sampling rate : 48.0 kHz
Compression mode : Lossy
Stream size : 71.0 MiB (3%)
Language : English
Default : No
Forced : No

pb.wtf



Скачать BBC. Земля: Взгляд из космоса через торрент https://i106.fastpic.ru/big/2019/0621/fd/0348b20e0f44abc38bf92300f06bd8fd.jpg Скачать фильм BBC. Земля: Взгляд из космоса через торрент бесплантно в хорошем качестве Описание: Камеры, установленные в космосе, рассказывают истории о жизни на нашей планете с совершенно нового ракурса, тем самым совершая ... 9.1 10 11
Торрент: Зарегистрирован [2019-06-22 04:10] · скачан: 184 раз
Статус: √ проверено
Размер: 8.79 GB
Как cкачать? Как скачать BBC. Земля: Взгляд из космоса через торрент | UTorrent

28-11-2019 20:33  

Отключить всю рекламу на сайте

    Дорогой пользователь! Огромная просьба, поблагодарите релизера, оцените раздачу и оставьте свои комментарий, если Вы скачали BBC. Земля: Взгляд из космоса через торрент бесплатно! Внесите свою лепту в развитие PiratBit!
    Комментировать посты могут только пользователи прошедшие не сложную регистрацию
    Показать сообщения:    

    BBC. Земля: Взгляд из космоса через торрент
    Скачать бесплатно BBC. Земля: Взгляд из космоса
    BBC. Земля: Взгляд из космоса скачать торрент
    BBC. Земля: Взгляд из космоса смотреть онлайн
    Cкачать фильм BBC. Земля: Взгляд из космоса бесплатно
    BBC. Земля: Взгляд из космоса скачать торрент в хорошем качестве
    BBC. Земля: Взгляд из космоса смотреть онлайн бесплатно в хорошем качестве


    Вы не можете начинать темы
    Вы не можете отвечать на сообщения
    Вы не можете редактировать свои сообщения
    Вы не можете удалять свои сообщения
    Вы не можете голосовать в опросах
    Вы не можете прикреплять файлы к сообщениям
    Вы можете скачивать файлы