Лицензия

MVO

1

1 сезон

Лицензия

Лицензия

13

MVO

1 сезон

Deluxe Edition

pack

Рекомендуем

30

Repack

ВАЖНО

ВАЖНО

Ghostwire

RePack

jed

RePack

fifa19

RePack

RDR2

RePack

NEED FOR SPEED™ PAYBACK

RePack

Кинопоиск HD

 Острые козырьки 6 сезон

6 сезон

FAR CRY 6

RePack

Лицензия

MVO

1

1 сезон

1 сезон

Лицензия

  

Рекрут / The Recruit (Роджер Дональдсон) [2003, боевик, триллер, драма, мелодрама, BDRip-HEVC 1080p, (10bit)] [GER Transfer] DUB+2xMVO+AVO

Рекрут через торрент pb.wtf

Размер: 8.85 GB | Добавлен: 3 года 3 мес. назад | Торрент скачан:101 раз
Смотреть онлайн Рекрут | Скачать   

22-06-2019 06:23 Рекрут Скачать торрент  

Рекрут / The Recruit Год выпуска: 2003
Страна: США
Жанр: боевик, триллер, драма, мелодрама
Продолжительность: 01:55:00
Перевод: дублированный, профессиональный многоголосый, авторский одноголосый
Субтитры: Русские полные (SRT), English full (SRT)

Режиссер: Роджер Дональдсон

rating

В ролях: Аль Пачино, Колин Фаррелл, Бриджет Мойнэхэн, Гэбриел Махт, Кеннет Митчелл, Майк Рилба, Рон Лиа, Карл Прюнер, Джини Колледжа, Дженни Ливайн

Описание: Джеймс Клэйтон — студент и опытный хакер. Он привлекает внимание спецслужб, и его вербуют в ЦРУ, упоминая таинственное исчезновение его отца в 90-х. Джеймс обучается у Уолтера Бёрка. Он отлично сдает все тесты, кроме последнего. Так он становится агентом без прикрытия и получает задание: найти «крота», который похищает опасный вирус из Лэнгли.

Качество: BDRip-HEVC 1080p | GER Transfer
Формат: MKV

Видео: 1920x820 (2,35:1), 8268 кбит/сек, 0.219 бит/(Пиксели*Кадры), 23.976 (24000/1001) кадр/сек, HEVC ([email protected]@High) 10 бит
Аудио#1: AC3, 2 ch, 192 Kbps - русский Дублированный (R5)
Аудио#2: AC3, 6 ch, 640 Kbps - русский Многоголосый (Видеосервис)
Аудио#3: AC3, 6 ch, 640 Kbps - русский Многоголосый (FDV)
Аудио#4: AC3, 6 ch, 640 Kbps - русский Авторский (Юрий Живов)
Аудио#5: AC3, 6 ch, 640 Kbps - english Original
скриншот  скриншот  скриншот  скриншот  

скриншот  скриншот  скриншот  скриншот  

x265 info: frame I: 698, Avg QP:16.09 kb/s: 15654.75
x265 info: frame P: 30124, Avg QP:17.45 kb/s: 11996.16
x265 info: frame B: 134616, Avg QP:19.39 kb/s: 7394.88
x265 info: Weighted P-Frames: Y:10.1% UV:7.7%
x265 info: Weighted B-Frames: Y:9.9% UV:6.5%
x265 info: consecutive B-frames: 2.8% 4.4% 4.7% 35.8% 11.1% 13.4% 7.5% 14.3% 2.4% 1.1% 0.5% 1.0% 0.2% 0.2% 0.3% 0.4%
x265 info: encoded 165438 frames in 211276.51s (0.78 fps), 8267.56 kb/s, Avg QP:19.03

Формат : Matroska
Версия формата : Version 4
Размер файла : 8,85 Гбайт
Продолжительность : 1 ч. 55 м.
Общий поток : 11,0 Мбит/сек
Название фильма : The Recruit
Описание : In an era when the country's first line of defense, intelligence, is more important than ever, this story opens the CIA's infamous closed doors and gives an insider's view into the Agency: how trainees are recruited, how they are prepared for the spy game, and what they learn to survive. James Clayton might not have the attitude of a typical recruit, but he is one of the smartest graduating seniors in the country - and he's just the person that Walter Burke wants in the Agency. James regards the CIA's mission as an intriguing alternative to an ordinary life, but before he becomes an Ops Officer, James has to survive the Agency's secret training ground, where green recruits are molded into seasoned veterans. As Burke teaches him the ropes and the rules of the game, James quickly rises through the ranks and falls for Layla, one of his fellow recruits. But just when James starts to question his role and his cat-and-mouse relationship with his mentor, Burke taps him for a special assignment to root out a mole. As the suspense builds toward a gripping climax, it soon becomes clear that the CIA's old maxims are true: "trust no one" and "nothing is what it seems."
Дата кодирования : UTC 2019-06-22 04:35:36
Программа кодирования : mkvmerge v34.0.0 ('Sight and Seen') 64-bit
Библиотека кодирования : libebml v1.3.7 + libmatroska v1.5.0 / Lavf57.71.100
Примечание : Rip by OldGamer
Attachments : poster.jpg
ACTORS : Al Pacino, Colin Farrell, Bridget Moynahan, Gabriel Macht
COUNTRY : USA
DATE : 2003
DIRECTOR : Roger Donaldson
ENCODING_INFO : MATROSKA,WEBM > MKV / VC1 > X265 CRF 19.5 Very Slow / AC3 > COPY Безопасное / DTS > AC3 CBR 864kbps / DTS > AC3 CBR 864kbps / DTS > AC3 CBR 864kbps / DTS > AC3 CBR 864kbps
GENRE : Action, Thriller
HD_VIDEO : 1
IMDB_RATING : 6.6
ITUNEXTC : mpaa|PG-13|300|
Язык : und
MEDIA_TYPE : 9
WRITER : Roger Towne, Kurt Wimmer, Mitch Glazer

Видео
Идентификатор : 1
Формат : HEVC
Формат/Информация : High Efficiency Video Coding
Профиль формата : Main [email protected]@High
Идентификатор кодека : V_MPEGH/ISO/HEVC
Продолжительность : 1 ч. 55 м.
Битрейт : 8268 Кбит/сек
Ширина : 1920 пикселей
Высота : 820 пикселей
Соотношение сторон : 2,35:1
Режим частоты кадров : Постоянный
Частота кадров : 23,976 (24000/1001) кадра/сек
Цветовое пространство : YUV
Субдискретизация насыщенности : 4:2:0
Битовая глубина : 10 бит
Бит/(Пиксели*Кадры) : 0.219
Размер потока : 6,64 Гбайт (75%)
Заголовок : The Recruit / Rip by OldGamer
Библиотека кодирования : x265 2.9+9-f74003e88622:[Mac OS X][clang 10.0.0][64 bit] 10bit
Настройки программы : cpuid=1111039 / frame-threads=14 / wpp / no-pmode / no-pme / no-psnr / no-ssim / log-level=3 / input-csp=1 / input-res=1920x820 / interlace=0 / total-frames=0 / level-idc=41 / high-tier=1 / uhd-bd=0 / ref=5 / allow-non-conformance / no-repeat-headers / annexb / no-aud / no-hrd / info / hash=0 / no-temporal-layers / open-gop / min-keyint=23 / keyint=240 / gop-lookahead=0 / bframes=15 / b-adapt=2 / b-pyramid / bframe-bias=0 / rc-lookahead=60 / lookahead-slices=5 / scenecut=40 / radl=0 / no-intra-refresh / ctu=64 / min-cu-size=8 / rect / amp / max-tu-size=32 / tu-inter-depth=4 / tu-intra-depth=4 / limit-tu=1 / rdoq-level=2 / dynamic-rd=0.00 / no-ssim-rd / signhide / no-tskip / nr-intra=0 / nr-inter=0 / no-constrained-intra / no-strong-intra-smoothing / max-merge=5 / limit-refs=2 / no-limit-modes / me=3 / subme=7 / merange=57 / temporal-mvp / weightp / weightb / no-analyze-src-pics / deblock=-3:-3 / no-sao / no-sao-non-deblock / rd=6 / no-early-skip / rskip / no-fast-intra / no-tskip-fast / no-cu-lossless / no-b-intra / no-splitrd-skip / rdpenalty=0 / psy-rd=2.00 / psy-rdoq=1.00 / no-rd-refine / no-lossless / cbqpoffs=0 / crqpoffs=0 / rc=crf / crf=19.5 / qcomp=0.70 / qpstep=4 / stats-write=0 / stats-read=0 / vbv-maxrate=50000 / vbv-bufsize=50000 / vbv-init=0.9 / crf-max=0.0 / crf-min=0.0 / ipratio=1.40 / pbratio=1.30 / aq-mode=3 / aq-strength=0.80 / no-cutree / zone-count=1 / zones: / start-frame=158922 / end-frame=165433 / qp=35 / no-strict-cbr / qg-size=32 / no-rc-grain / qpmax=69 / qpmin=0 / no-const-vbv / sar=1 / overscan=0 / videoformat=5 / range=0 / colorprim=2 / transfer=2 / colormatrix=2 / chromaloc=0 / display-window=0 / max-cll=0,0 / min-luma=0 / max-luma=1023 / log2-max-poc-lsb=8 / vui-timing-info / vui-hrd-info / slices=1 / no-opt-qp-pps / no-opt-ref-list-length-pps / no-multi-pass-opt-rps / scenecut-bias=0.00 / no-opt-cu-delta-qp / aq-motion / no-hdr / no-hdr-opt / no-dhdr10-opt / no-idr-recovery-sei / analysis-reuse-level=5 / scale-factor=0 / refine-intra=0 / refine-inter=0 / refine-mv=0 / no-limit-sao / ctu-info=0 / no-lowpass-dct / refine-mv-type=0 / copy-pic=1 / max-ausize-factor=1.0 / no-dynamic-refine / no-single-sei
Язык : English
Default : Да
Forced : Нет
Цветовой диапазон : Limited

Аудио #1
Идентификатор : 2
Формат : AC-3
Формат/Информация : Audio Coding 3
Коммерческое название : Dolby Digital
Идентификатор кодека : A_AC3
Продолжительность : 1 ч. 54 м.
Вид битрейта : Постоянный
Битрейт : 192 Кбит/сек
Каналы : 2 канала
Channel layout : L R
Частота : 48,0 КГц
Частота кадров : 31,250 кадров/сек (1536 SPF)
Битовая глубина : 16 бит
Метод сжатия : С потерями
Размер потока : 158 Мбайт (2%)
Заголовок : Дублированный (R5)
Язык : Russian
ServiceKind/ : Complete Main
Default : Да
Forced : Нет

Аудио #2
Идентификатор : 3
Формат : AC-3
Формат/Информация : Audio Coding 3
Коммерческое название : Dolby Digital
Идентификатор кодека : A_AC3
Продолжительность : 1 ч. 54 м.
Вид битрейта : Постоянный
Битрейт : 640 Кбит/сек
Каналы : 6 каналов
Channel layout : L R C LFE Ls Rs
Частота : 48,0 КГц
Частота кадров : 31,250 кадров/сек (1536 SPF)
Битовая глубина : 16 бит
Метод сжатия : С потерями
Размер потока : 526 Мбайт (6%)
Заголовок : Профессиональный многоголосый (Видеосервис)
Язык : Russian
ServiceKind/ : Complete Main
Default : Нет
Forced : Нет

Аудио #3
Идентификатор : 4
Формат : AC-3
Формат/Информация : Audio Coding 3
Коммерческое название : Dolby Digital
Идентификатор кодека : A_AC3
Продолжительность : 1 ч. 54 м.
Вид битрейта : Постоянный
Битрейт : 640 Кбит/сек
Каналы : 6 каналов
Channel layout : L R C LFE Ls Rs
Частота : 48,0 КГц
Частота кадров : 31,250 кадров/сек (1536 SPF)
Битовая глубина : 16 бит
Метод сжатия : С потерями
Размер потока : 526 Мбайт (6%)
Заголовок : Профессиональный многоголосый (FDV)
Язык : Russian
ServiceKind/ : Complete Main
Default : Нет
Forced : Нет

Аудио #4
Идентификатор : 5
Формат : AC-3
Формат/Информация : Audio Coding 3
Коммерческое название : Dolby Digital
Идентификатор кодека : A_AC3
Продолжительность : 1 ч. 54 м.
Вид битрейта : Постоянный
Битрейт : 640 Кбит/сек
Каналы : 6 каналов
Channel layout : L R C LFE Ls Rs
Частота : 48,0 КГц
Частота кадров : 31,250 кадров/сек (1536 SPF)
Битовая глубина : 16 бит
Метод сжатия : С потерями
Размер потока : 526 Мбайт (6%)
Заголовок : Авторский (Юрий Живов)
Язык : Russian
ServiceKind/ : Complete Main
Default : Нет
Forced : Нет

Аудио #5
Идентификатор : 6
Формат : AC-3
Формат/Информация : Audio Coding 3
Коммерческое название : Dolby Digital
Идентификатор кодека : A_AC3
Продолжительность : 1 ч. 54 м.
Вид битрейта : Постоянный
Битрейт : 640 Кбит/сек
Каналы : 6 каналов
Channel layout : L R C LFE Ls Rs
Частота : 48,0 КГц
Частота кадров : 31,250 кадров/сек (1536 SPF)
Битовая глубина : 16 бит
Метод сжатия : С потерями
Размер потока : 526 Мбайт (6%)
Заголовок : Original
Язык : English
ServiceKind/ : Complete Main
Default : Нет
Forced : Нет

Текст #1
Идентификатор : 7
Формат : UTF-8
Идентификатор кодека : S_TEXT/UTF8
Идентификатор кодека/Информация : UTF-8 Plain Text
Продолжительность : 1 ч. 49 м.
Битрейт : 76 бит/сек
ElementCount : 737
Размер потока : 61,8 Кбайт (0%)
Язык : Russian
Default : Нет
Forced : Нет

Текст #2
Идентификатор : 8
Формат : UTF-8
Идентификатор кодека : S_TEXT/UTF8
Идентификатор кодека/Информация : UTF-8 Plain Text
Продолжительность : 1 ч. 47 м.
Битрейт : 50 бит/сек
ElementCount : 1378
Размер потока : 39,4 Кбайт (0%)
Язык : English
Default : Нет
Forced : Нет

Меню
00:00:00.000 : :Chapter 01
00:02:41.286 : :Chapter 02
00:09:04.835 : :Chapter 03
00:15:02.985 : :Chapter 04
00:21:31.832 : :Chapter 05
00:27:59.928 : :Chapter 06
00:36:17.466 : :Chapter 07
00:40:36.684 : :Chapter 08
00:47:54.788 : :Chapter 09
00:56:19.459 : :Chapter 10
01:00:35.923 : :Chapter 11
01:09:15.276 : :Chapter 12
01:20:40.252 : :Chapter 13
01:27:52.475 : :Chapter 14
01:36:19.356 : :Chapter 15
01:45:11.346 : :Chapter 16
01:50:27.829 : :Chapter 17




Скачать Рекрут через торрент https://c.radikal.ru/c19/1906/ba/a2470f19406e.jpg Скачать, смотреть онлайн Рекрут бесплантно в хорошем качестве Описание: Джеймс Клэйтон — студент и опытный хакер. Он привлекает внимание спецслужб, и его вербуют в ЦРУ, упоминая таинственное ... 8.7 10 7
Торрент: Зарегистрирован [2019-06-22 06:23] · скачан: 101 раз
Статус: √ проверено
Размер: 8.85 GB
Как cкачать? Как скачать Рекрут через торрент | UTorrent

% Раздел Тема Автор DL S | L
Фильмы (HD 720p, 1080p) (48-60 fps) [ 5.45 GB ] Рекрут / The Recruit | DUB + 2xMVO + 3xAVO - от R.G. HD-Films | 720p / 60 FPS slaventi-69 Скачать
3 | 0

28-11-2019 20:33  

Отключить вcю реклaмy на сайте

    Дорогой пользователь! Огромная просьба, поблагодарите релизера, оцените раздачу и оставьте свои комментарий, если Вы скачали Рекрут через торрент бесплатно!!
    Комментировать посты могут только пользователи прошедшие не сложную регистрацию
    Показать сообщения:    


    Рекрут через торрент
    Скачать бесплатно Рекрут
    Рекрут скачать торрент
    Рекрут смотреть онлайн
    Cкачать фильм Рекрут бесплатно
    Рекрут скачать торрент в хорошем качестве
    Рекрут смотреть онлайн бесплатно в хорошем качестве
    Вы не можете начинать темы
    Вы не можете отвечать на сообщения
    Вы не можете редактировать свои сообщения
    Вы не можете удалять свои сообщения
    Вы не можете голосовать в опросах
    Вы не можете прикреплять файлы к сообщениям
    Вы можете скачивать файлы