новый адрес пиратбит piratbit
Мега распродажа FORZA HORIZON 4 ULTIMATE+ВСЕ DLC+ОНЛАЙН всего за 499р. 349 руб. (супер цена). Внимание количество ограничено!!!

iTunes

1+1

iTunes

мы

iTunes

1

iTunes

Чернобыль

iTunes

Ральф против интернета

Лицензия

ПШазам

Лицензия

Игра престолов

Лицензия

30
pack

ВАЖНО

!!Акция!!

Alien_RageХит недели

RePack

Resident Evil 21

ИГРА 18+

pack

RePack

Metro:Exodus

!!Акция!!

Alien_Rage

RePack

fifa19

RePack

Assassins Creed: Odyssey

RePack

NEED FOR SPEED™ PAYBACK

3 сезон

9 сезон

Бесстыжие 9 сезон

Все сериалы

все сериалы на PB.wtf

RePack

FAR CRY 5
Ребята, катастрофически не хватает 1900р. для оплаты серверов за Октябрь (всвязи с блокировками трафик упал в 3 раза), 1-2р., выручайте.
  

Последствия / The Aftermath (Джеймс Кент) [2019, драма, мелодрама, военный, BD Remux 1080p] DUB (rus, ukr) [Лицензия] pb.wtf

Последствия через торрент pb.wtf

Размер: 26.23 GB | Добавлен: 4 мес. 3 д. назад | Торрент скачан:6 раз
Скачать  

23-06-2019 04:20 Последствия Скачать торрент  

Последствия / The Aftermath
Год выпуска: 2019
Страна: Великобритания, Германия, США
Жанр: драма, мелодрама, военный
Продолжительность: 01:48:38
Перевод: Дублированный | Лицензия
Субтитры: Русские (forced, full), украинские (forced), английские

Режиссер: Джеймс Кент

rating

В ролях:

Кира Найтли (Rachael Morgan), Александр Скарсгард (Stephen Lubert), Джейсон Кларк (Lewis Morgan), Фионн О’Ши (Barker), Кейт Филлипс (Susan), Мартин Компстон (Burnham), Александр Шеер (Leitmann), Анна Катарина Шримригк (Heike), Ned Wills (Boy on Train), Пандора Колин (Mother on Train), Джек Лэски (Wilkins), Mirco Kuball (Soldier)
Описание:

Германия после Второй мировой войны. В стране беспорядок, разруха, голод. Главный герой - британский военный Льюис Морган, который назначен временным мэром Гамбурга. Ему предстоит восстанавливать город почти с нуля. Вместе с женой Льюис селится в роскошный особняк, где живет немецкий архитектор с эмоционально нестабильной дочерью. Смогут ли бывшие враги ужиться под одной крышей или желание отомстить будет сильнее?

Качество: BD Remux 1080p
Формат: MKV

Видео: MPEG-4 AVC, 1920x1080, 30.0 Mbit/s, 23.976 fps
Аудио#1: 48 kHz, DTS, 5.1, 768 Kbps | Дублированный | RUS |
Аудио#2: 48 kHz, AC3, 5.1, 448 Kbps | Дублированный | UKR |
Аудио#3: 48 kHz, DTS-HD MA, 5.1, 3313 Kbps | Оригинал | ENG |
скриншот  скриншот  скриншот  скриншот  скриншот  

General
Unique ID : 56082785996646287015611034299485616058 (0x2A3126D542123D068BD2E66DC8A777BA)
Complete name : D:Video111The.Aftermath.2019.Lic.BDREMUX.1080p.seleZen.mkv
Format : Matroska
Format version : Version 4
File size : 26.2 GiB
Duration : 1 h 48 min
Overall bit rate mode : Variable
Overall bit rate : 34.6 Mb/s
Movie name : The Aftermath 2019 from селезень
Encoded date : UTC 2019-07-11 00:34:26
Writing application : mkvmerge v35.0.0 ('All The Love In The World') 64-bit
Writing library : libebml v1.3.9 + libmatroska v1.5.2

Video
ID : 1
Format : AVC
Format/Info : Advanced Video Codec
Format profile : High@L4.1
Format settings : CABAC / 4 Ref Frames
Format settings, CABAC : Yes
Format settings, Reference : 4 frames
Codec ID : V_MPEG4/ISO/AVC
Duration : 1 h 48 min
Bit rate mode : Variable
Bit rate : 30.0 Mb/s
Maximum bit rate : 32.5 Mb/s
Width : 1 920 pixels
Height : 1 080 pixels
Display aspect ratio : 16:9
Frame rate mode : Constant
Frame rate : 23.976 (24000/1001) FPS
Color space : YUV
Chroma subsampling : 4:2:0
Bit depth : 8 bits
Scan type : Progressive
Bits/(Pixel*Frame) : 0.604
Stream size : 22.8 GiB (87%)
Language : English
Default : Yes
Forced : No

Audio #1
ID : 2
Format : DTS
Format/Info : Digital Theater Systems
Codec ID : A_DTS
Duration : 1 h 48 min
Bit rate mode : Constant
Bit rate : 768 kb/s
Channel(s) : 6 channels
Channel layout : C L R Ls Rs LFE
Sampling rate : 48.0 kHz
Frame rate : 93.750 FPS (512 SPF)
Bit depth : 24 bits
Compression mode : Lossy
Stream size : 597 MiB (2%)
Title : Dub [License]
Language : Russian
Default : Yes
Forced : Yes

Audio #2
ID : 3
Format : AC-3
Format/Info : Audio Coding 3
Commercial name : Dolby Digital
Codec ID : A_AC3
Duration : 1 h 48 min
Bit rate mode : Constant
Bit rate : 448 kb/s
Channel(s) : 6 channels
Channel layout : L R C LFE Ls Rs
Sampling rate : 48.0 kHz
Frame rate : 31.250 FPS (1536 SPF)
Bit depth : 16 bits
Compression mode : Lossy
Stream size : 348 MiB (1%)
Title : Dub [License]
Language : Ukrainian
Service kind : Complete Main
Default : No
Forced : No

Audio #3
ID : 4
Format : DTS XLL
Format/Info : Digital Theater Systems
Commercial name : DTS-HD Master Audio
Codec ID : A_DTS
Duration : 1 h 48 min
Bit rate mode : Variable
Bit rate : 3 313 kb/s
Channel(s) : 6 channels
Channel layout : C L R Ls Rs LFE
Sampling rate : 48.0 kHz
Frame rate : 93.750 FPS (512 SPF)
Bit depth : 24 bits
Compression mode : Lossless
Stream size : 2.51 GiB (10%)
Title : Original
Language : English
Default : No
Forced : No

Text #1
ID : 5
Format : UTF-8
Codec ID : S_TEXT/UTF8
Codec ID/Info : UTF-8 Plain Text
Duration : 1 h 42 min
Bit rate : 3 b/s
Count of elements : 79
Stream size : 2.72 KiB (0%)
Title : Forced
Language : Russian
Default : Yes
Forced : Yes

Text #2
ID : 6
Format : UTF-8
Codec ID : S_TEXT/UTF8
Codec ID/Info : UTF-8 Plain Text
Duration : 1 h 47 min
Bit rate : 44 b/s
Count of elements : 837
Stream size : 35.0 KiB (0%)
Title : Full
Language : Russian
Default : No
Forced : No

Text #3
ID : 7
Format : UTF-8
Codec ID : S_TEXT/UTF8
Codec ID/Info : UTF-8 Plain Text
Duration : 1 h 31 min
Bit rate : 3 b/s
Count of elements : 74
Stream size : 2.45 KiB (0%)
Title : Forced
Language : Ukrainian
Default : No
Forced : No

Text #4
ID : 8
Format : UTF-8
Codec ID : S_TEXT/UTF8
Codec ID/Info : UTF-8 Plain Text
Duration : 1 h 18 min
Bit rate : 2 b/s
Count of elements : 61
Stream size : 1.30 KiB (0%)
Title : Forced
Language : English
Default : No
Forced : No

Text #5
ID : 9
Format : UTF-8
Codec ID : S_TEXT/UTF8
Codec ID/Info : UTF-8 Plain Text
Duration : 1 h 39 min
Bit rate : 31 b/s
Count of elements : 949
Stream size : 22.8 KiB (0%)
Title : Full
Language : English
Default : No
Forced : No

Menu
00:00:00.000 : en:Глава 01
00:04:00.198 : en:Глава 02
00:10:37.387 : en:Глава 03
00:14:21.152 : en:Глава 04
00:17:51.779 : en:Глава 05
00:22:40.526 : en:Глава 06
00:27:50.878 : en:Глава 07
00:35:09.524 : en:Глава 08
00:37:11.020 : en:Глава 09
00:41:33.074 : en:Глава 10
00:46:29.078 : en:Глава 11
00:49:59.872 : en:Глава 12
00:56:03.694 : en:Глава 13
01:02:05.680 : en:Глава 14
01:04:49.636 : en:Глава 15
01:09:01.262 : en:Глава 16
01:15:59.305 : en:Глава 17
01:19:48.033 : en:Глава 18
01:22:09.049 : en:Глава 19
01:27:01.508 : en:Глава 20
01:29:36.788 : en:Глава 21
01:33:39.614 : en:Глава 22
01:39:16.033 : en:Глава 23
01:42:47.870 : en:Глава 24

pb.wtf



Скачать Последствия через торрент http://img16.lostpic.net/2019/07/11/eeb5c0d2787b69b671ea123124bae465.jpg Скачать фильм Последствия через торрент бесплантно в хорошем качестве Описание: Германия после Второй мировой войны. В стране беспорядок, разруха, голод. Главный герой - британский военный Льюис Морган, ... 10 10 3
Торрент: Зарегистрирован [2019-07-11 01:16] · скачан: 6 раз
Статус: √ проверено
Размер: 26.23 GB
Как cкачать? Как скачать Последствия через торрент | qTorrent

% Раздел Тема Автор DL S | L
Фильмы 2019 [DVDrip, WEB-DLRip, HDrip] (DUB, MVO) [ 2.18 GB ] Последствия / The Aftermath [2019 военный BDRip] - [] - ExKinoRay Enigma2010 Скачать
38 | 1
Фильмы 2019 [DVDrip, WEB-DLRip, HDrip] (DUB, MVO) [ 1.46 GB ] Последствия / The Aftermath [2019 военный BDRip] - [] Twi7ter Скачать
50 | 2
Фильмы 2019 [DVDrip, WEB-DLRip, HDrip] (DUB, MVO) [ 2.25 GB ] Последствия / The Aftermath [2019 военный BDRip-AVC] DUB [] bober100 Скачать
2 | 0
Фильмы (Blu-ray, BD-Remux, HDDVD) [ 37.23 GB ] Последствия / The Aftermath [2019 военный Blu-ray EUR 1080p] DUB [] bober100 Скачать
1 | 0
Фильмы [HD 720p, 1080p] (Хороший звук DUB, MVO) [ 5.92 GB ] Последствия / The Aftermath [2019 военный BDRip 720p] DUB [] bober100 Скачать
2 | 0
Фильмы [HD 720p, 1080p] (Хороший звук DUB, MVO) [ 12.59 GB ] Последствия / The Aftermath [2019 военный BDRip 1080p] DUB [] bober100 Скачать
1 | 0
Ultra HD (UHD: 2K, 4K, 8K) — видео сверхвысокой чёткости [ 19.49 GB ] Последствия / The Aftermath [2019 военный UHD WEB-DL 2160p] DUB sheker187 Скачать
2 | 0


>> Регистрируемся здесь <<






Отзывы и комментарии о схеме читаем и пишем здесь: ---> Отзывы и комментарии о схеме

Новые благодарочки в телеграм довольных пользователей:
скриншот   скриншот   скриншот   скриншот   скриншот
    Дорогой пользователь! Огромная просьба, поблагодарите релизера, оцените раздачу и оставьте свои комментарий, если Вы скачали Последствия через торрент бесплатно! Внесите свою лепту в развитие PiratBit!
    Комментировать посты могут только пользователи прошедшие не сложную регистрацию
    Показать сообщения:    

    Последствия через торрент
    Скачать бесплатно Последствия
    Последствия скачать торрент
    Последствия смотреть онлайн
    Cкачать фильм Последствия бесплатно
    Последствия скачать торрент в хорошем качестве
    Последствия смотреть онлайн бесплатно в хорошем качестве


    Вы не можете начинать темы
    Вы не можете отвечать на сообщения
    Вы не можете редактировать свои сообщения
    Вы не можете удалять свои сообщения
    Вы не можете голосовать в опросах
    Вы не можете прикреплять файлы к сообщениям
    Вы можете скачивать файлы