Мега распродажа FORZA HORIZON 4 ULTIMATE+ВСЕ DLC+ОНЛАЙН всего за 499р. 349 руб. (супер цена). Внимание количество ограничено!!!

iTunes

1+1

iTunes

мы

iTunes

1

1 сезон

Чернобыль

1 сезон

Ральф против интернета

Лицензия

ПШазам

8 сезон

Игра престолов

Лицензия

30
pack

ВАЖНО

!!Акция!!

Alien_RageХит недели

RePack

Resident Evil 21

ИГРА 18+

pack

RePack

Metro:Exodus

!!Акция!!

Alien_Rage

RePack

fifa19

RePack

Assassins Creed: Odyssey

RePack

NEED FOR SPEED™ PAYBACK

3 сезон

9 сезон

Бесстыжие 9 сезон

Все сериалы

все сериалы на PB.wtf

RePack

FAR CRY 5
Ребята, катастрофически не хватает 2730р. для оплаты серверов за ИЮНЬ (всвязи с блокировками трафик упал в 3 раза), 1-2р., выручайте.
  

Йеллоустоун / Yellowstone / Сезон: 2 / Серии: 1-2 из 10 (Тейлор Шеридан, Стефен Т. Кэй, Эдвард Бьянчи) [2019, Драма, вестерн, WEB-DLRip] MVO [LostFilm] pb.wtf

Йеллоустоун через торрент pb.wtf

Раздают: 4 [ 0 KB/s ] Качают: 2 [ 0 KB/s ]
Размер: 1.32 GB | Добавлен: 16 д. назад | Торрент скачан:9 раз
Скачать  

23-06-2019 05:00 Йеллоустоун Скачать торрент  

Йеллоустоун / Yellowstone Год выпуска: 2019
Страна: США
Жанр: Драма, вестерн
Продолжительность: ~00:55:00
Перевод: Профессиональный (многоголосый закадровый) | LostFilm
Субтитры: нет

Режиссёр: Тейлор Шеридан, Стефен Т. Кэй, Эдвард Бьянчи

В ролях:

Кевин Костнер, Дэйв Эннэйбл, Келли Райлли, Коул Хаузер, Келси Эсбиль, Джил Бирмингем, Люк Граймс, Джералд Токала Клиффорд

Описание:

Йеллоустон — первый в мире национальный парк, одно из самих посещаемых мест в США. Но здесь, на границе цивилизации, происходит много такого, чего не видят туристы, что не освещается средствами массовой информации. Семья Даттон, главой которой является Джон Даттон, владеет огромным ранчо, сопредельным с территорией парка. На их землю претендует и сам парк, и индейская резервация, и жадные застройщики.



Качество: WEB-DLRip
Формат: AVI

Видео: XviD, 704x352 (2.00:1), 23,976 fps, ~1500 kbps
Аудио #1: 48 kHz, MPEG Layer 3, 2 ch, ~128.00 kbps | Rus
Аудио #2: 48 kHz, MPEG Layer 3, 2 ch, ~128.00 kbps | Eng


Реклама: нет
Format : AVI
Format/Info : Audio Video Interleave
File size : 600 MiB
Duration : 47 min 6 s
Overall bit rate : 1 780 kb/s
Writing application : VirtualDubMod 1.5.10.2 (build 2540/release)
Writing library : VirtualDubMod build 2540/release

Video
ID : 0
Format : MPEG-4 Visual
Format profile : Advanced Simple@L5
Format settings : BVOP2 / Custom Matrix
Format settings, BVOP : 2
Format settings, QPel : No
Format settings, GMC : No warppoints
Format settings, Matrix : Custom
Codec ID : XVID
Codec ID/Hint : XviD
Duration : 47 min 6 s
Bit rate : 1 509 kb/s
Width : 704 pixels
Height : 352 pixels
Display aspect ratio : 2.000
Frame rate : 23.976 (24000/1001) FPS
Color space : YUV
Chroma subsampling : 4:2:0
Bit depth : 8 bits
Scan type : Progressive
Compression mode : Lossy
Bits/(Pixel*Frame) : 0.254
Stream size : 509 MiB (85%)
Writing library : XviD 73

Audio #1
ID : 1
Format : MPEG Audio
Format version : Version 1
Format profile : Layer 3
Format settings : Joint stereo / MS Stereo
Codec ID : 55
Codec ID/Hint : MP3
Duration : 47 min 4 s
Bit rate mode : Constant
Bit rate : 128 kb/s
Channel(s) : 2 channels
Sampling rate : 48.0 kHz
Compression mode : Lossy
Stream size : 43.1 MiB (7%)
Alignment : Split accross interleaves
Interleave, duration : 42 ms (1.00 video frame)
Interleave, preload duratio : 500 ms

Audio #2
ID : 2
Format : MPEG Audio
Format version : Version 1
Format profile : Layer 3
Format settings : Joint stereo / MS Stereo
Codec ID : 55
Codec ID/Hint : MP3
Duration : 47 min 6 s
Bit rate mode : Constant
Bit rate : 128 kb/s
Channel(s) : 2 channels
Sampling rate : 48.0 kHz
Compression mode : Lossy
Stream size : 43.1 MiB (7%)
Alignment : Split accross interleaves
Interleave, duration : 42 ms (1.00 video frame)
Interleave, preload duratio : 500 ms
скриншот  скриншот  скриншот  скриншот  
Внимание! Раздача ведётся путём добавления новых серий; при каждом добавлении создаётся новый торрент. Чтобы начать докачку новой серии, пользователям необходимо сделать следующее:
(1) остановить скачивание,
(2) удалить старый торрент у себя из клиента (старые серии удалять не надо),
(3) скачать новый торрент и запустить его у себя в клиенте вместо старого, при этом указать клиенту путь в старую папку куда и должно происходить скачивание новых серий.

Ваш клиент при этом должен произвести хеширование (проверку) старой папки (если не производит сам - помогите ему сделать это), и будет докачивать только те серии которых у вас ещё нет. Старые серии при этом не удаляются, а продолжают раздаваться!

Eсли вы уже удалили старые серии, то предотвратить повторную закачку старых серий можно, отжав галочку в соответствующих местах при запуске нового торрента. По возможности, желательно не удалять старые серии как можно дольше чтобы релизёр не столько продолжал раздавать старые серии, а смог сконцентрироваться на новых.
pb.wtf



Скачать Йеллоустоун через торрент https://i110.fastpic.ru/big/2019/0622/86/6052f7d6b25a4f038ee6ce0f2930dd86.jpg Скачать фильм Йеллоустоун через торрент бесплантно в хорошем качестве Описание: Йеллоустон — первый в мире национальный парк, одно из самих посещаемых мест в США. Но здесь, на границе цивилизации, происходит ... 8.8 10 5
Торрент: Зарегистрирован [2019-07-01 05:05] · скачан: 9 раз
Статус: √ проверено
Размер: 1.32 GB
Как cкачать? Как скачать Йеллоустоун через торрент | qTorrent

% Раздел Тема Автор DL S | L
Зарубежные сериалы [ 5.06 GB ] Йеллоустоун / Yellowstone / Сезон: 2 / Серии: 1-2 из 10 [2019 WEBRip 1080p] [MVO] killermax2013 Скачать
2 | 0
Зарубежные сериалы [ 8.47 GB ] Йеллоустоун / Yellowstone / Сезон: 2 / Серии: 1-3 из 10 [2019 WEB-DL 1080p] [MVO] killermax2013 Скачать
2 | 2
Зарубежные сериалы [ 2.18 GB ] Йеллоустоун / Yellowstone / Сезон: 2 / Серии: 1-3 из 10 [2019 WEB-DLRip] [MVO] killermax2013 Скачать
1 | 1
Зарубежные сериалы [ 3.04 GB ] Йеллоустоун / Yellowstone / Сезон: 2 / Серии: 1-2 из 10 [2019 WEB 720p] MVO [LostFilm] bober100 Скачать
2 | 1


>> Регистрируемся здесь <<






Отзывы и комментарии о схеме читаем и пишем здесь: ---> Отзывы и комментарии о схеме

Новые благодарочки в телеграм довольных пользователей:
скриншот   скриншот   скриншот   скриншот   скриншот
    Дорогой пользователь! Огромная просьба, поблагодарите релизера, оцените раздачу и оставьте свои комментарий, если Вы скачали Йеллоустоун через торрент бесплатно! Внесите свою лепту в развитие PiratBit!
    Комментировать посты могут только пользователи прошедшие не сложную регистрацию
    Показать сообщения:    

    Йеллоустоун через торрент
    Скачать бесплатно Йеллоустоун
    Йеллоустоун скачать торрент
    Йеллоустоун смотреть онлайн
    Cкачать фильм Йеллоустоун бесплатно
    Йеллоустоун скачать торрент в хорошем качестве
    Йеллоустоун смотреть онлайн бесплатно в хорошем качестве


    Вы не можете начинать темы
    Вы не можете отвечать на сообщения
    Вы не можете редактировать свои сообщения
    Вы не можете удалять свои сообщения
    Вы не можете голосовать в опросах
    Вы не можете прикреплять файлы к сообщениям
    Вы можете скачивать файлы