Мега распродажа FORZA HORIZON 4 ULTIMATE+ВСЕ DLC+ОНЛАЙН всего за 499р. 349 руб. (супер цена). Внимание количество ограничено!!!

iTunes

1+1

iTunes

мы

iTunes

1

1 сезон

Чернобыль

1 сезон

Ральф против интернета

Лицензия

ПШазам

8 сезон

Игра престолов

Лицензия

30
pack

ВАЖНО

!!Акция!!

Alien_RageХит недели

RePack

Resident Evil 21

ИГРА 18+

pack

RePack

Metro:Exodus

!!Акция!!

Alien_Rage

RePack

fifa19

RePack

Assassins Creed: Odyssey

RePack

NEED FOR SPEED™ PAYBACK

3 сезон

9 сезон

Бесстыжие 9 сезон

Все сериалы

все сериалы на PB.wtf

RePack

FAR CRY 5
Ребята, катастрофически не хватает 2730р. для оплаты серверов за ИЮНЬ (всвязи с блокировками трафик упал в 3 раза), 1-2р., выручайте.
  

Йеллоустоун / Yellowstone / Сезон: 2 / Серии: 1-2 из 10 (Тейлор Шеридан) [2019, драма, вестерн, WEB 720p] MVO [LostFilm] pb.wtf

Йеллоустоун через торрент pb.wtf

Размер: 3.04 GB | Добавлен: 16 д. назад | Торрент скачан:9 раз
Скачать  

23-06-2019 05:05 Йеллоустоун Скачать торрент  

Йеллоустоун / Yellowstone
«***»
Страна: США
Год выпуска: 2019
Жанр: драма, вестерн
Продолжительность: ~ 00:54:00 серия
Перевод: Многоголосый закадровый, профессиональный | LostFilm
Субтитры: Eng
Премьера (мир): 20 июня 2018

Режиссер: Тейлор Шеридан, Стефен Т. Кэй, Эдвард Бьянчи

В ролях: Кевин Костнер, Келли Райлли, Коул Хаузер, Люк Граймс, Уэс Бентли, Келси Эсбиль

Описание:
Йеллоустон — первый в мире национальный парк, одно из самих посещаемых мест в США. Но здесь, на границе цивилизации, происходит много такого, чего не видят туристы, что не освещается средствами массовой информации. Семья Даттон, главой которой является Джон Даттон, владеет огромным ранчо, сопредельным с территорией парка. На их землю претендует и сам парк, и индейская резервация, и жадные застройщики.



Качество: WEB 720p
Формат: MKV

Видео: AVC, 1280 x 544 (1.778) 23.976 fps, ~1960 kbps
Аудио Rus: AC-3, 48 kHz, 2 ch, 192 kbps |LostFilm|
Аудио Eng: E-AC-3, 48 kHz, 2 ch, 224 kbps |Original|
Общее
Уникальный идентификатор : 93113241457121329970670945045425296620 (0x460CF53F1A5397C8B2CDFFC5A5EA14EC)
Полное имя : E:\Yellowstone.S02.720p.WEBRip.LostFilm\Yellowstone.S02E01.720p.WEBRip.LostFilm.mkv
Формат : Matroska
Версия формата : Version 4
Размер файла : 1,44 Гбайт
Продолжительность : 47 м. 6 с.
Общий поток : 4363 Кбит/сек
Дата кодирования : UTC 2019-06-22 20:22:45
Программа кодирования : mkvmerge v34.0.0 ('Sight and Seen') 64-bit
Библиотека кодирования : libebml v1.3.7 + libmatroska v1.5.0

Видео
Идентификатор : 1
Формат : AVC
Формат/Информация : Advanced Video Codec
Профиль формата : High@L3.1
Настройки формата : CABAC / 4 Ref Frames
Параметр CABAC формата : Да
Параметр RefFrames формата : 4 кадра
Идентификатор кодека : V_MPEG4/ISO/AVC
Продолжительность : 47 м. 6 с.
Вид битрейта : Постоянный
Битрейт : 3945 Кбит/сек
Номинальный битрейт : 6000 Кбит/сек
Ширина : 1280 пикселей
Высота : 720 пикселей
Соотношение сторон : 16:9
Режим частоты кадров : Постоянный
Частота кадров : 23,976 (24000/1001) кадра/сек
Цветовое пространство : YUV
Субдискретизация насыщенности : 4:2:0
Битовая глубина : 8 бит
Тип развёртки : Прогрессивная
Бит/(Пиксели*Кадры) : 0.179
Размер потока : 1,30 Гбайт (90%)
Default : Да
Forced : Нет
Цветовой диапазон : Limited
Основные цвета : BT.709
Характеристики трансфера : BT.709
Коэффициенты матрицы : BT.709

Аудио #1
Идентификатор : 2
Формат : AC-3
Формат/Информация : Audio Coding 3
Коммерческое название : Dolby Digital
Идентификатор кодека : A_AC3
Продолжительность : 47 м. 4 с.
Вид битрейта : Постоянный
Битрейт : 192 Кбит/сек
Каналы : 2 канала
Channel layout : L R
Частота : 48,0 КГц
Частота кадров : 31,250 кадров/сек (1536 SPF)
Битовая глубина : 16 бит
Метод сжатия : С потерями
Размер потока : 64,7 Мбайт (4%)
Язык : Russian
ServiceKind/String : Complete Main
Default : Нет
Forced : Нет

Аудио #2
Идентификатор : 3
Формат : E-AC-3
Формат/Информация : Enhanced AC-3
Коммерческое название : Dolby Digital Plus
Идентификатор кодека : A_EAC3
Продолжительность : 47 м. 6 с.
Вид битрейта : Постоянный
Битрейт : 224 Кбит/сек
Каналы : 2 канала
Channel layout : L R
Частота : 48,0 КГц
Частота кадров : 31,250 кадров/сек (1536 SPF)
Метод сжатия : С потерями
Размер потока : 75,5 Мбайт (5%)
Язык : English
ServiceKind/String : Complete Main
Default : Да
Forced : Нет

Текст
Идентификатор : 4
Формат : UTF-8
Идентификатор кодека : S_TEXT/UTF8
Идентификатор кодека/Информация : UTF-8 Plain Text
Продолжительность : 45 м. 59 с.
Битрейт : 61 бит/сек
ElementCount : 712
Размер потока : 20,8 Кбайт (0%)
Заголовок : SDH
Язык : English
Default : Нет
Forced : Нет
Раздача ведётся путём добавления новых серий; при каждом добавлении создаётся новый торрент.
Чтобы начать докачку новой серии, пользователям необходимо сделать следующее:
1. остановить скачивание,
2. удалить старый торрент у себя из клиента (старые серии удалять не надо),
3. скачать новый торрент и запустить его у себя в клиенте вместо старого, при этом указать клиенту путь в старую папку, куда и должно происходить скачивание новых серий.

Ваш клиент при этом должен произвести хеширование (проверку) старой папки (если не производит сам - помогите ему сделать это), и будет докачивать только те серии которых у вас ещё нет. Старые серии при этом не удаляются, а продолжают раздаваться!

Eсли вы уже удалили старые серии, то предотвратить повторную закачку старых серий можно, отжав галочку в соответствующих местах при запуске нового торрента. По возможности, желательно не удалять старые серии как можно дольше, чтобы релизёр не столько продолжал раздавать старые серии, а смог сконцентрироваться на новых.

Совет для тех, кто не хочет ждать перехеширования:
Создайте ещё одну папку рядом с папкой сериала (рядом, а не в ней!!!). Каждую новую серию после удачной загрузки копируйте в новую папку так чтобы ваша основная папка всегда была пуста. Когда ваш новый торрент предложит вам закачать все файлы, выберете только последнюю. Для сидирования же укажите адрес новой папки.

Как закачать отдельный файл из торрента или докачать ранее пропущенные файлы торрента!
1. Открыть торрент
2. Снять галки с тех файлов торрента, которые мы не хотим закачивать. Оставляем только на нужных нам файлах (файле).
3. Нажать О.К.

В клиенте utorrent

Инструкция

1) Открыть торрент


2) Снять галки с тех файлов торрента, которые мы не хотим закачивать:

* либо вручную, снимая с каждого файла галку( скрин №1)
* либо, нажав кнопку "Снять метки (Select None)", сняв сразу со всех файлов(скрин №2)
№1

№2

Оставляем только на нужных нам файлах (файле).

3)Нажать О.К
Приятного просмотра!!!pb.wtf



Скачать Йеллоустоун через торрент https://i5.imageban.ru/out/2019/06/22/9beea2d01069bad0c8f6a46e63a468b1.png Скачать фильм Йеллоустоун через торрент бесплантно в хорошем качестве Описание:Йеллоустон — первый в мире национальный парк, одно из самих посещаемых мест в США. Но здесь, на границе цивилизации, происходит ... 7.7 10 3
Торрент: Зарегистрирован [2019-07-01 05:03] · скачан: 9 раз
Статус: √ проверено
Размер: 3.04 GB
Как cкачать? Как скачать Йеллоустоун через торрент | qTorrent

% Раздел Тема Автор DL S | L
Зарубежные сериалы [ 5.06 GB ] Йеллоустоун / Yellowstone / Сезон: 2 / Серии: 1-2 из 10 [2019 WEBRip 1080p] [MVO] killermax2013 Скачать
2 | 0
Зарубежные сериалы [ 8.47 GB ] Йеллоустоун / Yellowstone / Сезон: 2 / Серии: 1-3 из 10 [2019 WEB-DL 1080p] [MVO] killermax2013 Скачать
1 | 2
Зарубежные сериалы [ 2.18 GB ] Йеллоустоун / Yellowstone / Сезон: 2 / Серии: 1-3 из 10 [2019 WEB-DLRip] [MVO] killermax2013 Скачать
1 | 1
Зарубежные сериалы [ 1.32 GB ] Йеллоустоун / Yellowstone / Сезон: 2 / Серии: 1-2 из 10 [2019 WEB-DLRip] MVO [LostFilm] bober100 Скачать
3 | 1


>> Регистрируемся здесь <<






Отзывы и комментарии о схеме читаем и пишем здесь: ---> Отзывы и комментарии о схеме

Новые благодарочки в телеграм довольных пользователей:
скриншот   скриншот   скриншот   скриншот   скриншот
    Дорогой пользователь! Огромная просьба, поблагодарите релизера, оцените раздачу и оставьте свои комментарий, если Вы скачали Йеллоустоун через торрент бесплатно! Внесите свою лепту в развитие PiratBit!
    Комментировать посты могут только пользователи прошедшие не сложную регистрацию
    Показать сообщения:    

    Йеллоустоун через торрент
    Скачать бесплатно Йеллоустоун
    Йеллоустоун скачать торрент
    Йеллоустоун смотреть онлайн
    Cкачать фильм Йеллоустоун бесплатно
    Йеллоустоун скачать торрент в хорошем качестве
    Йеллоустоун смотреть онлайн бесплатно в хорошем качестве


    Вы не можете начинать темы
    Вы не можете отвечать на сообщения
    Вы не можете редактировать свои сообщения
    Вы не можете удалять свои сообщения
    Вы не можете голосовать в опросах
    Вы не можете прикреплять файлы к сообщениям
    Вы можете скачивать файлы