Ссылка на приватное зеркало нашего сайта всего за 1$. Внимание количество ограничено!!!

2 сезон

iTunes

1 сезон

1

iTunes

iTunes

iTunes

1 сезон

RePack

30

ИГРА 18+

pack

ВАЖНО

!!Акция!!

Alien_RageХит недели

RePack

MK11
pack

Забери бонус

RePack

jed

!!Акция!!

Alien_Rage

RePack

fifa19

RePack

Assassins Creed: Odyssey

RePack

NEED FOR SPEED™ PAYBACK

4 сезон

9 сезон

Бесстыжие 9 сезон

Все сериалы

все сериалы на PB.wtf

RePack

FAR CRY 5
  

Месть на десерт / Серии: 1-4 из 4 (Александр Хван) [2019, Детектив, WEB-DL 720p] pb.wtf

Месть на десерт через торрент pb.wtf

Размер: 3.53 GB | Добавлен: 1 год 4 мес. назад | Торрент скачан:94 раза
Скачать  

23-06-2019 06:28 Месть на десерт Скачать торрент  

Месть на десерт Год выпуска: 2019
Страна: Россия
Жанр: Детектив
Продолжительность: ~ 00:46:00
Перевод: Не требуется
Субтитры: отсутствуют

Режиссер: Александр Хван



В ролях:

Полина Кузьминская, Алексей Демидов, Виктория Маслова, Тимур Орагвелидзе, Ирина Фролова, Виктория Белякова, Павел Клячин, Сергей Шаталов, Любовь Франк, Татьяна Шумова, Борис Покровский, Степан Лапин, Александр Басов, Святослав Насташевский

Описание:

Мария и Андрей Быстровы – следователи Следственного Комитета. Узнав, что муж ей изменил, Мария назло ему встречается с бывшим поклонником. Вскоре она понимает, что беременна. Брак Быстровых рушится, однако новое расследование им приходится вести вместе. Отравлен бизнесмен. Яд был в пирожном, которое жена Елена привезла ему с работы: она объясняет, что десерт ей оставил в подарок кто-то из пациентов. Подозреваемый быстро находится. Но когда дело кажется раскрытым, в жизни Елены происходит новая драма. Становится ясно, что у нее есть тайный враг, который придумал изощренный план мести. Но Елена не может вспомнить, кому перешла дорогу...

Качество: WEB-DL 720p
Формат: MKV

Видео: 1280x720, (16:9), 25 fps, AVC MPEG-4 (x264), High@L4 ~ 2569 kbps , 0.112 bit/pixel
Аудио: AC3 Dolby Digital, 48.0 kHz, 2/0 (L,R) ch, 192 kbps
скриншот  скриншот  скриншот  скриншот  скриншот  

Общее
Уникальный идентификатор : 88178749749997251298866554598650346660 (0x42569C0595AADCBE0E50096B2550FCA4)
Полное имя : C:\Месть на десерт.(2018).WEB-DL (720p).by.Nicodem.Files-x\01.Месть на десерт.(2018).WEB-DL (720p).by.Nicodem.Files-x.mkv
Формат : Matroska
Версия формата : Version 4
Размер файла : 912 Мбайт
Продолжительность : 46 м. 14 с.
Общий поток : 2756 Кбит/сек
Программа кодирования : Lavf56.36.100
Библиотека кодирования : Lavf56.36.100

Видео
Идентификатор : 1
Формат : AVC
Формат/Информация : Advanced Video Codec
Профиль формата : High@L4
Настройки формата : CABAC / 4 Ref Frames
Параметр CABAC формата : Да
Параметр RefFrames формата : 4 кадра
Идентификатор кодека : V_MPEG4/ISO/AVC
Продолжительность : 46 м. 14 с.
Битрейт : 2569 Кбит/сек
Ширина : 1280 пикселей
Высота : 720 пикселей
Соотношение сторон : 16:9
Режим частоты кадров : Постоянный
Частота кадров : 25,000 кадров/сек
Цветовое пространство : YUV
Субдискретизация насыщенности : 4:2:0
Битовая глубина : 8 бит
Тип развёртки : Прогрессивная
Бит/(Пиксели*Кадры) : 0.112
Размер потока : 830 Мбайт (91%)
Библиотека кодирования : x264 core 142
Настройки программы : cabac=1 / ref=3 / deblock=1:0:0 / analyse=0x3:0x113 / me=hex / subme=7 / psy=1 / psy_rd=1.00:0.00 / mixed_ref=1 / me_range=16 / chroma_me=1 / trellis=1 / 8x8dct=1 / cqm=0 / deadzone=21,11 / fast_pskip=1 / chroma_qp_offset=-2 / threads=48 / lookahead_threads=5 / sliced_threads=0 / nr=0 / decimate=1 / interlaced=0 / bluray_compat=0 / constrained_intra=0 / bframes=6 / b_pyramid=2 / b_adapt=1 / b_bias=0 / direct=1 / weightb=1 / open_gop=0 / weightp=2 / keyint=50 / keyint_min=26 / scenecut=0 / intra_refresh=0 / rc_lookahead=40 / rc=2pass / mbtree=1 / bitrate=2569 / ratetol=1.0 / qcomp=0.60 / qpmin=0 / qpmax=69 / qpstep=4 / cplxblur=20.0 / qblur=0.5 / vbv_maxrate=3854 / vbv_bufsize=10279 / nal_hrd=none / filler=0 / ip_ratio=1.40 / aq=1:1.00
Default : Да
Forced : Нет

Аудио
Идентификатор : 2
Формат : AC-3
Формат/Информация : Audio Coding 3
Коммерческое название : Dolby Digital
Идентификатор кодека : A_AC3
Продолжительность : 46 м. 14 с.
Вид битрейта : Постоянный
Битрейт : 192 Кбит/сек
Каналы : 2 канала
Channel layout : L R
Частота : 48,0 КГц
Частота кадров : 31,250 кадров/сек (1536 SPF)
Битовая глубина : 16 бит
Метод сжатия : С потерями
Задержка видео : -80 мс.
Размер потока : 63,5 Мбайт (7%)
Язык : unknown
ServiceKind/String : Complete Main
Default : Да
Forced : Нет

pb.wtf



Скачать Месть на десерт через торрент http://lostpix.com/img/2019-02/16/q7ot67ewl5mheso4y53zptx8i.jpg Скачать фильм Месть на десерт через торрент бесплантно в хорошем качестве Описание: Мария и Андрей Быстровы – следователи Следственного Комитета. Узнав, что муж ей изменил, Мария назло ему встречается с бывшим ... 9.1 10 7
Торрент: Зарегистрирован [2019-06-23 06:28] · скачан: 94 раз
Статус: √ проверено
Размер: 3.53 GB
Как cкачать? Как скачать Месть на десерт через торрент | qTorrent

% Раздел Тема Автор DL S | L
Наши сериалы [ 2.27 GB ] Месть на десерт / Серии: 1-4 из 4 [2019 WEB-DLRip-AVC] bober100 Скачать
1 | 0
Наши сериалы [ 6.79 GB ] Месть на десерт / Серии: 1-4 из 4 [2019 WEB-DL 1080p] bober100 Скачать
1 | 0
Наши сериалы [ 2.18 GB ] Месть на десерт / Серии: 1-4 из 4 [2019 WEB-DLRip] bober100 Скачать
2 | 0
Наши сериалы [ 2.34 GB ] Месть на десерт / Серии: 1-4 из 4 [2019 SATRip] bober100 Скачать
1 | 0
Наши сериалы [ 2.24 GB ] Месть на десерт / Серии: 1-4 из 4 [2019 SATRip-AVC] aleksan55 Скачать
1 | 0

28-11-2019 20:33  

Отключить всю рекламу на сайте

    Дорогой пользователь! Огромная просьба, поблагодарите релизера, оцените раздачу и оставьте свои комментарий, если Вы скачали Месть на десерт через торрент бесплатно! Внесите свою лепту в развитие PiratBit!
    Комментировать посты могут только пользователи прошедшие не сложную регистрацию
    Показать сообщения:    

    Месть на десерт через торрент
    Скачать бесплатно Месть на десерт
    Месть на десерт скачать торрент
    Месть на десерт смотреть онлайн
    Cкачать фильм Месть на десерт бесплатно
    Месть на десерт скачать торрент в хорошем качестве
    Месть на десерт смотреть онлайн бесплатно в хорошем качестве


    Вы не можете начинать темы
    Вы не можете отвечать на сообщения
    Вы не можете редактировать свои сообщения
    Вы не можете удалять свои сообщения
    Вы не можете голосовать в опросах
    Вы не можете прикреплять файлы к сообщениям
    Вы можете скачивать файлы