Всегда рабочее зеркало без VPN и Proxy просто перед .vidak.icu напиши любое слово или цифру, Пример http://d407.vidak.icu

Лицензия

MVO

1 сезон

1

1 сезон

iTunes

1 сезон

13

1 сезон

Deluxe

pack

Рекомендуем

Repack

30

ВАЖНО

RePack

MK11

RePack

jed

RePack

fifa19

RePack

RDR2

RePack

NEED FOR SPEED™ PAYBACK

Кинопоиск HD

6 сезон

 Острые козырьки 6 сезон

Все сериалы

все сериалы на PB.wtf

RePack

FAR CRY 5
  
Magnet ссылка

Форсаж 6 / Furious 6 (Джастин Лин) [2013, Боевик, драма, криминал, UHD BDRip 2160p] Дубляж [Лицензия] [Расширенная версия] pb.wtf

Форсаж 6 через торрент pb.wtf

Размер: 16.31 GB | Добавлен: 3 года 1 мес. назад | Торрент скачан:42 раза
Смотреть онлайн Форсаж 6 | Скачать    Ребята, помогите собрать деньги на оплату серверов!!!

23-06-2019 10:14 Форсаж 6 Скачать торрент  

Форсаж 6 / Furious 6««Все дороги принадлежат им»»

Год выпуска: 2013
Страна: США
Жанр: Боевик, драма, криминал, триллер
Продолжительность: 02:11:02
Перевод: Дублированный [Лицензия]
Субтитры: (forced, full), английские
Режиссер: Джастин Лин
В ролях:

Вин Дизель (Dominic Toretto), Пол Уокер (Brian O'Conner), Дуэйн Джонсон (Hobbs), Мишель Родригес (Letty), Люк Эванс (Shaw), Тайриз Гибсон (Roman), Лудакрис (Tej), Галь Гадот (Gisele), Джина Карано (Riley), Джордана Брюстер (Mia), Сон Ган (Han), Эльза Патаки (Elena)
Описание:
После того как Доминик и Брайн побывали в Рио, где они ограбили и свергли империю вора в законе, их команда получила 100 миллионов, и наши герои оказались разбросаны по всему миру. Но их привычка вечно жить в бегах не даёт им покоя. Между тем, Хоббс отслеживал организацию смертельно опасных наёмников-водителей по двенадцати странам. Единственный способ остановить эту криминальную группу - это превзойти их на улицах, поэтому Хоббс просит Доминика собрать его элитную команду в Лондоне. За это он обещает полное помилование для Доминика и его друзей, чтобы они смогли наконец вернуться домой к своей семье.
Рейтинг:

MPAA: PG-13 - Детям до 13 лет просмотр не желателен
Качество: UHD BDRip 2160p | Расширенная версия
Формат: MKV
Видео: HEVC HDR, 16.4 Mбит/с, 3840x1632, 23.976 кадр/с, 10 Бит
Аудио: 48 kHz, DTS, 5.1, 768 Kbps | Дублированный | RUS |
Аудио: 48 kHz, AC3, 5.1, 640 Kbps | Оригинал | ENG |
Навигация по главам: есть

Общее
Уникальный идентификатор : 202082108194787678614235306815233153011 (0x9807992CCACBAF85BA0C9E9117CB57F3)
Полное имя : D:\Мои раздачи\Передел\Fast.&.Furious.6.2013.Extended.Cut..BDRip.2160p.4K.HEVC.HDR.Master5.mkv
Формат : Matroska
Версия формата : Version 4 / Version 2
Размер файла : 16,3 Гбайт
Продолжительность : 2 ч. 11 м.
Общий поток : 17,8 Мбит/сек
Название фильма : Fast.&.Furious.6.2013.Extended.Cut..BDRip.2160p.4K.HEVC.HDR.Master5
Дата кодирования : UTC 2019-06-23 06:24:03
Программа кодирования : mkvmerge v7.9.0 ('Birds') 64bit
Библиотека кодирования : libebml v1.3.1 + libmatroska v1.4.2
Обложка : Yes
Attachments : small_cover_land.jpg / cover.jpg / cover_land.jpg / small_cover.jpg / cover.jpg

Видео
Идентификатор : 1
Формат : HEVC
Формат/Информация : High Efficiency Video Coding
Коммерческое название : HDR10
Профиль формата : Main [email protected][email protected]
Идентификатор кодека : V_MPEGH/ISO/HEVC
Продолжительность : 2 ч. 11 м.
Битрейт : 16,4 Мбит/сек
Ширина : 3840 пикселей
Высота : 1632 пикселя
Соотношение сторон : 2,35:1
Режим частоты кадров : Постоянный
Частота кадров : 23,976 (24000/1001) кадра/сек
Цветовое пространство : YUV
Субдискретизация насыщенности : 4:2:0 (Type 2)
Битовая глубина : 10 бит
Бит/(Пиксели*Кадры) : 0.109
Размер потока : 15,0 Гбайт (92%)
Заголовок : Fast.&.Furious.6.2013.Extended.Cut..BDRip.2160p.4K.HEVC.HDR.Master5
Библиотека кодирования : x265 3.0_Au+10-74a8672ea4f7:[Windows][GCC 8.2.1][64 bit] 10bit
Настройки программы : cpuid=1111039 / frame-threads=16 / numa-pools=24,24,24,24 / wpp / no-pmode / no-pme / no-psnr / no-ssim / log-level=2 / input-csp=1 / input-res=3840x1632 / interlace=0 / total-frames=0 / level-idc=51 / high-tier=1 / uhd-bd=0 / ref=3 / no-allow-non-conformance / repeat-headers / annexb / aud / hrd / info / hash=0 / no-temporal-layers / no-open-gop / min-keyint=1 / keyint=24 / gop-lookahead=0 / bframes=4 / b-adapt=2 / b-pyramid / bframe-bias=0 / rc-lookahead=25 / lookahead-slices=4 / scenecut=40 / radl=0 / no-splice / no-intra-refresh / ctu=64 / min-cu-size=8 / no-rect / no-amp / max-tu-size=32 / tu-inter-depth=1 / tu-intra-depth=1 / limit-tu=0 / rdoq-level=0 / dynamic-rd=0.00 / no-ssim-rd / signhide / no-tskip / nr-intra=0 / nr-inter=0 / no-constrained-intra / strong-intra-smoothing / max-merge=2 / limit-refs=3 / no-limit-modes / me=1 / subme=2 / merange=57 / temporal-mvp / weightp / no-weightb / no-analyze-src-pics / deblock=0:0 / no-sao / no-sao-non-deblock / rd=3 / no-early-skip / rskip / no-fast-intra / no-tskip-fast / no-cu-lossless / no-b-intra / no-splitrd-skip / rdpenalty=0 / psy-rd=2.00 / psy-rdoq=0.00 / no-rd-refine / no-lossless / cbqpoffs=0 / crqpoffs=0 / rc=crf / crf=16.0 / qcomp=0.60 / qpstep=4 / stats-write=0 / stats-read=0 / vbv-maxrate=160000 / vbv-bufsize=160000 / vbv-init=0.9 / crf-max=0.0 / crf-min=0.0 / ipratio=1.40 / pbratio=1.30 / aq-mode=1 / aq-strength=1.00 / cutree / zone-count=0 / no-strict-cbr / qg-size=32 / no-rc-grain / qpmax=69 / qpmin=0 / no-const-vbv / sar=1 / overscan=0 / videoformat=5 / range=0 / colorprim=9 / transfer=16 / colormatrix=9 / chromaloc=1 / chromaloc-top=2 / chromaloc-bottom=2 / display-window=0 / master-display=G(13250,34500)B(7500,3000)R(34000,16000)WP(15635,16450)L(10000000,50) / max-cll=1000,252 / min-luma=0 / max-luma=1023 / log2-max-poc-lsb=8 / vui-timing-info / vui-hrd-info / slices=1 / opt-qp-pps / opt-ref-list-length-pps / no-multi-pass-opt-rps / scenecut-bias=0.05 / no-opt-cu-delta-qp / no-aq-motion / hdr / hdr-opt / no-dhdr10-opt / no-idr-recovery-sei / analysis-reuse-level=5 / scale-factor=0 / refine-intra=0 / refine-inter=0 / refine-mv=0 / refine-ctu-distortion=0 / no-limit-sao / ctu-info=0 / no-lowpass-dct / refine-analysis-type=14 / copy-pic=1 / max-ausize-factor=1.0 / no-dynamic-refine / no-single-sei / no-hevc-aq / no-svt / qp-adaptation-range=1.00
Default : Да
Forced : Нет
Цветовой диапазон : Limited
Основные цвета : BT.2020
Характеристики трансфера : PQ
Коэффициенты матрицы : BT.2020 non-constant
MasteringDisplay_ColorPrimaries : Display P3
MasteringDisplay_Luminance : min: 0.0050 cd/m2, max: 1000 cd/m2
MaxCLL : 1000 cd/m2
MaxFALL : 252 cd/m2

Аудио #1
Идентификатор : 2
Формат : DTS
Формат/Информация : Digital Theater Systems
Идентификатор кодека : A_DTS
Продолжительность : 2 ч. 11 м.
Вид битрейта : Постоянный
Битрейт : 768 Кбит/сек
Каналы : 6 каналов
Расположение каналов : Front: L C R, Side: L R, LFE
Частота : 48,0 КГц
Частота кадров : 93,750 кадра/сек (512 SPF)
Битовая глубина : 24 бит
Метод сжатия : С потерями
Размер потока : 720 Мбайт (4%)
Заголовок : Dub License
Язык : Russian
Default : Да
Forced : Нет

Аудио #2
Идентификатор : 3
Формат : AC-3
Формат/Информация : Audio Coding 3
Идентификатор кодека : A_AC3
Продолжительность : 2 ч. 10 м.
Вид битрейта : Постоянный
Битрейт : 640 Кбит/сек
Каналы : 6 каналов
Расположение каналов : Front: L C R, Side: L R, LFE
Частота : 48,0 КГц
Частота кадров : 31,250 кадров/сек (1536 SPF)
Битовая глубина : 16 бит
Метод сжатия : С потерями
Размер потока : 598 Мбайт (4%)
Язык : English
ServiceKind/String : Complete Main
Default : Нет
Forced : Нет

Текст #1
Идентификатор : 4
Формат : UTF-8
Идентификатор кодека : S_TEXT/UTF8
Идентификатор кодека/Информация : UTF-8 Plain Text
Продолжительность : 2 ч. 9 м.
Битрейт : 1 бит/сек
ElementCount : 45
Размер потока : 1,79 Кбайт (0%)
Заголовок : Forced
Язык : Russian
Default : Да
Forced : Нет

Текст #2
Идентификатор : 5
Формат : UTF-8
Идентификатор кодека : S_TEXT/UTF8
Идентификатор кодека/Информация : UTF-8 Plain Text
Продолжительность : 2 ч. 9 м.
Битрейт : 62 бит/сек
ElementCount : 1251
Размер потока : 59,6 Кбайт (0%)
Заголовок : Full
Язык : Russian
Default : Нет
Forced : Нет

Текст #3
Идентификатор : 6
Формат : UTF-8
Идентификатор кодека : S_TEXT/UTF8
Идентификатор кодека/Информация : UTF-8 Plain Text
Продолжительность : 2 ч. 2 м.
Битрейт : 42 бит/сек
ElementCount : 1270
Размер потока : 38,6 Кбайт (0%)
Заголовок : Full
Язык : English
Default : Нет
Forced : Нет

Текст #4
Идентификатор : 7
Формат : UTF-8
Идентификатор кодека : S_TEXT/UTF8
Идентификатор кодека/Информация : UTF-8 Plain Text
Продолжительность : 2 ч. 6 м.
Битрейт : 113 бит/сек
ElementCount : 1862
Размер потока : 105 Кбайт (0%)
Заголовок : SDH
Язык : English
Default : Нет
Forced : Нет

Меню
00:00:00.000 : en:Chapter 1
00:04:21.011 : en:Chapter 2
00:10:19.118 : en:Chapter 3
00:15:35.268 : en:Chapter 4
00:19:18.574 : en:Chapter 5
00:24:32.721 : en:Chapter 6
00:30:23.405 : en:Chapter 7
00:36:28.478 : en:Chapter 8
00:44:01.305 : en:Chapter 9
00:50:50.255 : en:Chapter 10
00:56:54.327 : en:Chapter 11
01:04:54.057 : en:Chapter 12
01:10:14.293 : en:Chapter 13
01:19:13.457 : en:Chapter 14
01:25:41.178 : en:Chapter 15
01:34:53.771 : en:Chapter 16
01:41:48.561 : en:Chapter 17
01:48:31.838 : en:Chapter 18
01:57:48.812 : en:Chapter 19
02:03:04.418 : en:Chapter 20
pb.wtf



Скачать Форсаж 6 через торрент https://b.radikal.ru/b19/1906/e9/442781488fbd.png Скачать, смотреть онлайн Форсаж 6 бесплантно в хорошем качестве Описание: После того как Доминик и Брайн побывали в Рио, где они ограбили и свергли империю вора в законе, их команда получила 100 ... 10 10 4
Торрент: Зарегистрирован [2019-06-23 10:14] · скачан: 42 раз
Статус: √ проверено
Размер: 16.31 GB
Как cкачать? Как скачать Форсаж 6 через торрент | UTorrent

% Раздел Тема Автор DL S | L
Фильмы (HD 720p, 1080p) (48-60 fps) [ 9.41 GB ] Форсаж 6 / Fast & Furious 6 [2013 BDRip 720p] [Extended] [60 fps] killermax2013 Скачать
1 | 0
Фильмы [HD 720p, 1080p] (Хороший звук DUB, MVO) [ 5.42 GB ] Форсаж 6 / Furious 6 [2013 BDRip 1080p HEVC ] [Extended Cut] Мичман37 Скачать
1 | 0
Ultra HD (UHD: 2K, 4K, 8K) — видео сверхвысокой чёткости [ 55.67 GB ] Форсаж 6 / Fast & Furious 6 [2013 UHD BDRemux 2160p] [Расширенная версия] DUB [] +3xAVO bober100 Скачать
1 | 0
Сборники (HD Video) [ 152.32 GB ] Форсаж / The Fast and the Furious [ BDRemux 1080p ] читерас Скачать
1 | 0
Фильмы (DVD фильмы) [ 7.81 GB ] Форсаж 6 / Furious 6 [2013 DVD9] R5 voovaz Скачать
1 | 0
Фильмы 2013 [DVDrip, WEB-DLRip, HDrip] [ 1.37 GB ] Форсаж 6 / Furious 6 [2013 HDRip DUB [лицензия/ ] [EXTENDED] Ворон Скачать
1 | 0
Фильмы (Blu-ray, BD-Remux, HDDVD) [ 20.71 GB ] Форсаж 6 / Fast & Furious 6 [2013 BD-Remux | Russia|] Userman4ik Скачать
1 | 0

28-11-2019 20:33  

Отключить вcю реклaмy на сайте

    Дорогой пользователь! Огромная просьба, поблагодарите релизера, оцените раздачу и оставьте свои комментарий, если Вы скачали Форсаж 6 через торрент бесплатно!
    Комментировать посты могут только пользователи прошедшие не сложную регистрацию
    Показать сообщения:    

    Форсаж 6 через торрент
    Скачать бесплатно Форсаж 6
    Форсаж 6 скачать торрент
    Форсаж 6 смотреть онлайн
    Cкачать фильм Форсаж 6 бесплатно
    Форсаж 6 скачать торрент в хорошем качестве
    Форсаж 6 смотреть онлайн бесплатно в хорошем качестве


    Вы не можете начинать темы
    Вы не можете отвечать на сообщения
    Вы не можете редактировать свои сообщения
    Вы не можете удалять свои сообщения
    Вы не можете голосовать в опросах
    Вы не можете прикреплять файлы к сообщениям
    Вы можете скачивать файлы