Ссылка на приватное зеркало всего за 1$. Внимание количество ограничено!!!

iTunes

iTunes

iTunes

1

iTunes

iTunes

iTunes

iTunes

iTunes

30
pack

$ от Little Big

ВАЖНО

!!Акция!!

Alien_RageХит недели

RePack

Resident Evil 21

ИГРА 18+

pack

RePack

jed

!!Акция!!

Alien_Rage

RePack

fifa19

RePack

Assassins Creed: Odyssey

RePack

NEED FOR SPEED™ PAYBACK

4 сезон

9 сезон

Бесстыжие 9 сезон

Все сериалы

все сериалы на PB.wtf

RePack

FAR CRY 5
  

Братство (Павел Лунгин) [2019, Драма, боевик, история, военный, WEB-DL 1080p] [iTunes] pb.wtf

Братство через торрент pb.wtf

Раздают: 6 [ 47 KB/s ]
Размер: 4.45 GB | Добавлен: 11 мес. назад | Торрент скачан:1075 раз
Скачать  

24-06-2019 01:38 Братство Скачать торрент  

Братство

Год выпуска: 2019
Страна: Россия
Жанр: Драма, боевик, история, военный
Продолжительность: 01:52:28
Перевод: Не требуется
Субтитры: Отсутствуют
Режиссер: Павел Лунгин

В ролях:

Кирилл Пирогов, Ян Цапник, Виталий Кищенко, Федор Лавров, Олег Васильков, Антон Момот, Михаил Кремер, Кирилл Ермичев (Мельник), Роман Колотухин, Василий Буткевич, Арслан Мурзабеков, Антон Кузнецов (Абубакр)
Описание:
1988 год, канун вывода советских войск из Афганистана. Командование 108-й мотострелковой дивизии планирует отход через перевал Саланг, подконтрольный группировке моджахедов Инженера Хошема. Разведка пытается договориться о перемирии с душманами, но дело осложняется тем, что в плен к Хошему попадает советский военный пилот. Начинается сложная игра, в которой переплетаются противоположные интересы множества самых разных людей: штабистов, исламистов, спецназа, разведки, чиновников из афганского правительства, сотрудников советских спецслужб, таджиков и пуштунов. А в самом центре этого водоворота оказываются солдаты разведроты, для которых важнее любых политических соображений остается правило - не бросать своих.
Рейтинг:

Качество: WEB-DL 1080p
Формат: MKV
Видео: MPEG-4 AVC, 5166 Kbps, 1920x1080, 24 fps, 0.104 bits/pixel
Аудио: русский / AC3 / 5.1 / 48 kHz / 384 kbps | iTunes

General
Unique ID : 234930076175377127086615671266282490631 (0xB0BDE308E2B5E7B4906C17589326CB07)
Complete name : D:\BRATSTVO (2019) WEB-DL 1080p.FIX.mkv
Format : Matroska
Format version : Version 2
File size : 4.45 GiB
Duration : 1 h 52 min
Overall bit rate : 5 663 kb/s
Movie name : Братство (2019)
Encoded date : UTC 2019-06-23 23:55:32
Writing application : mkvmerge v6.5.0 ('Isn't she lovely') built on Oct 20 2013 12:50:05
Writing library : libebml v1.3.0 + libmatroska v1.4.1

Video
ID : 1
Format : AVC
Format/Info : Advanced Video Codec
Format profile : High@L4
Format settings : CABAC / 4 Ref Frames
Format settings, CABAC : Yes
Format settings, ReFrames : 4 frames
Codec ID : V_MPEG4/ISO/AVC
Duration : 1 h 52 min
Bit rate : 5 166 kb/s
Width : 1 920 pixels
Height : 1 080 pixels
Display aspect ratio : 16:9
Frame rate mode : Constant
Frame rate : 24.000 FPS
Color space : YUV
Chroma subsampling : 4:2:0
Bit depth : 8 bits
Scan type : Progressive
Bits/(Pixel*Frame) : 0.104
Stream size : 4.06 GiB (91%)
Title : BRATSTVO (2019) WEB-DL 1080p
Language : Russian
Default : Yes
Forced : No
Color range : Limited
Color primaries : BT.709
Transfer characteristics : BT.709
Matrix coefficients : BT.709

Audio
ID : 2
Format : AC-3
Format/Info : Audio Coding 3
Commercial name : Dolby Digital
Codec ID : A_AC3
Duration : 1 h 52 min
Bit rate mode : Constant
Bit rate : 384 kb/s
Channel(s) : 6 channels
Channel layout : L R C LFE Ls Rs
Sampling rate : 48.0 kHz
Frame rate : 31.250 FPS (1536 SPF)
Bit depth : 16 bits
Compression mode : Lossy
Stream size : 309 MiB (7%)
Language : Russian
Service kind : Complete Main
Default : Yes
Forced : No
pb.wtf



Скачать Братство через торрент https://a.radikal.ru/a08/1906/8b/d024523c2ed6.png Скачать фильм Братство через торрент бесплантно в хорошем качестве Описание: 1988 год, канун вывода советских войск из Афганистана. Командование 108-й мотострелковой дивизии планирует отход через перевал ... 9.9 10 28
Info! Золотая раздача, скачанное не засчитывается.
Торрент: Зарегистрирован [2019-06-24 01:38] · скачан: 1 075 раз
Статус: √ проверено
Размер: 4.45 GB
Как cкачать? Как скачать Братство через торрент | qTorrent

% Раздел Тема Автор DL S | L
Наши новые фильмы 2018-2019 [ 2.19 GB ] Братство [2019 история военный BDRip] [Русский] [] Twi7ter Скачать
23 | 1
Наши новые фильмы 2018-2019 [ 1.47 GB ] Братство [2019 история военный BDRip] [Русский] [] Twi7ter Скачать
27 | 1
Наши фильмы (Blu-ray, BD-Remux, HDDVD) [ 36.93 GB ] Братство [2019 история военный Blu-ray Оригинальный] Бумер Скачать
1 | 0
Наши новые фильмы 2018-2019 [ 1.46 GB ] Братство [2019 история военный BDRip] [FRA Transfer / ] bober100 Скачать
5 | 0
Наши фильмы (Blu-ray, BD-Remux, HDDVD) [ 28.12 GB ] Братство [2019 история военный BD Remux 1080p] [FRA Transfer / ] bober100 Скачать
2 | 0
Наши новые фильмы 2018-2019 [ 2.18 GB ] Братство [2019 история военный BDRip] [FRA Transfer / ] bober100 Скачать
4 | 0
Наши фильмы (HD, WEB-DL 720p, 1080p) [ 9.26 GB ] Братство [2019 история военный BDRip 1080p] [FRA Transfer / ] bober100 Скачать
5 | 0

28-11-2019 20:33  

Отключить всю рекламу на сайте

    Дорогой пользователь! Огромная просьба, поблагодарите релизера, оцените раздачу и оставьте свои комментарий, если Вы скачали Братство через торрент бесплатно! Внесите свою лепту в развитие PiratBit!
    Комментировать посты могут только пользователи прошедшие не сложную регистрацию
    Показать сообщения:    

    Братство через торрент
    Скачать бесплатно Братство
    Братство скачать торрент
    Братство смотреть онлайн
    Cкачать фильм Братство бесплатно
    Братство скачать торрент в хорошем качестве
    Братство смотреть онлайн бесплатно в хорошем качестве


    Вы не можете начинать темы
    Вы не можете отвечать на сообщения
    Вы не можете редактировать свои сообщения
    Вы не можете удалять свои сообщения
    Вы не можете голосовать в опросах
    Вы не можете прикреплять файлы к сообщениям
    Вы можете скачивать файлы