Ссылка на приватное зеркало нашего сайта всего за 1$. Внимание количество ограничено!!!

2 сезон

iTunes

1 сезон

1

2 сезон

2 сезон

iTunes

1 сезон

RePack

30

Новинка

ВАЖНО

ИГРА 18+

pack

RePack

MK11
pack

Забери бонус

RePack

jed

!!Акция!!

Alien_Rage

RePack

fifa19

RePack

Assassins Creed: Odyssey

RePack

NEED FOR SPEED™ PAYBACK

4 сезон

9 сезон

Бесстыжие 9 сезон

Все сериалы

все сериалы на PB.wtf

RePack

FAR CRY 5
  

Лучшие враги / The Best of Enemies (Робин Бисселл) [2019, Драма, биография, история, WEB-DL 1080p] MVO [HDRezka Studio] - ExKinoRay pb.wtf

Лучшие враги через торрент pb.wtf

Раздают: 6 [ 0 KB/s ]
Размер: 4.81 GB | Добавлен: 1 год 4 мес. назад | Торрент скачан:187 раз
Скачать  

25-06-2019 17:23 Лучшие враги Скачать торрент  

Название: Лучшие враги
Оригинальное название: The Best of Enemies
Год выпуска: 2019
Жанр: Драма, биография, история
Режиссер: Робин Бисселл
В ролях: Тараджи П. Хенсон, Сэм Рокуэлл, Бабу Сизей, Ник Сирси, Уэс Бентли, Энн Хеч, Брюс МакГилл, Джон Галлахер мл., Ник Ковальчук, Гилберт Гленн Браун

Описание: История о невероятной дружбе между чернокожей правозащитницей Энн Атуотер и членом Ку-клукс-клана Клэйборном Эллисом. Они были ожесточёнными противниками, пока не попали в один комитет по решению расового разделения в школе. Давних врагов объединяет забота о будущем своих детей.

rating

Страна: США
Студия: Astute Films, Material Pictures
Продолжительность: 02:13:23
Перевод: Профессиональный многоголосый (HDRezka Studio)
Субтитры: Русские (forced), английские

БЕЗ КАКОЙ-ЛИБО РЕКЛАМЫ!

Формат: MKV
Качество: WEB-DL 1080p
Видео: MPEG-4 AVC, 1916x800 (2.40:1), 23.976 fps, 4588 Kbps, 0.122 bit/pixel
Аудио #01: 48 kHz, AC3, 2.0, 192 Kbps | RUS | RUS |
Аудио #02: 48 kHz, AC3, 5.1, 384 Kbps | Оригинал | ENG |
General
Unique ID : 245641751537249218998424442001771901869 (0xB8CCE167A4DC6FBC9AB69A0E9C76B3AD)
Complete name : F:\The.Best.of.Enemies.2019.1080p.WEB-DL.ExKinoRay (1).mkv
Format : Matroska
Format version : Version 2
File size : 4.81 GiB
Duration : 2 h 13 min
Overall bit rate : 5 167 kb/s
Movie name : The Best of Enemies 2019 from ExKinoRay
Encoded date : UTC 2019-06-25 17:56:26
Writing application : mkvmerge v5.6.0 ('Kenya Kane') built on May 27 2012 16:44:04
Writing library : libebml v1.2.3 + libmatroska v1.3.0

Video
ID : 1
Format : AVC
Format/Info : Advanced Video Codec
Format profile : High@L4
Format settings, CABAC : Yes
Format settings, ReFrames : 5 frames
Codec ID : V_MPEG4/ISO/AVC
Duration : 2 h 13 min
Bit rate : 4 488 kb/s
Width : 1 916 pixels
Height : 800 pixels
Display aspect ratio : 2.40:1
Frame rate mode : Constant
Frame rate : 23.976 (24000/1001) FPS
Color space : YUV
Chroma subsampling : 4:2:0
Bit depth : 8 bits
Scan type : Progressive
Bits/(Pixel*Frame) : 0.122
Stream size : 4.18 GiB (87%)
Title : The.Best.of.Enemies.2019.1080p.WEB-DL
Language : English
Default : Yes
Forced : No
Color range : Limited
Color primaries : BT.709
Transfer characteristics : BT.709
Matrix coefficients : BT.709

Audio #1
ID : 2
Format : AC-3
Format/Info : Audio Coding 3
Mode extension : CM (complete main)
Format settings, Endianness : Big
Codec ID : A_AC3
Duration : 2 h 13 min
Bit rate mode : Constant
Bit rate : 192 kb/s
Channel(s) : 2 channels
Channel positions : Front: L R
Sampling rate : 48.0 kHz
Frame rate : 31.250 FPS (1536 spf)
Compression mode : Lossy
Stream size : 183 MiB (4%)
Title : MVO
Language : Russian
Default : Yes
Forced : No

Audio #2
ID : 3
Format : AC-3
Format/Info : Audio Coding 3
Mode extension : CM (complete main)
Format settings, Endianness : Big
Codec ID : A_AC3
Duration : 2 h 13 min
Bit rate mode : Constant
Bit rate : 384 kb/s
Channel(s) : 6 channels
Channel positions : Front: L C R, Side: L R, LFE
Sampling rate : 48.0 kHz
Frame rate : 31.250 FPS (1536 spf)
Compression mode : Lossy
Stream size : 366 MiB (7%)
Language : English
Default : No
Forced : No

Text #1
ID : 4
Format : UTF-8
Codec ID : S_TEXT/UTF8
Codec ID/Info : UTF-8 Plain Text
Title : Forced
Language : Russian
Default : Yes
Forced : No

Text #2
ID : 5
Format : UTF-8
Codec ID : S_TEXT/UTF8
Codec ID/Info : UTF-8 Plain Text
Language : English
Default : No
Forced : No

Text #3
ID : 6
Format : UTF-8
Codec ID : S_TEXT/UTF8
Codec ID/Info : UTF-8 Plain Text
Title : SDH
Language : English
Default : No
Forced : No

Menu
00:00:00.000 : en:1
00:07:21.566 : en:2
00:15:34.349 : en:3
00:24:48.653 : en:4
00:31:44.192 : en:5
00:38:54.746 : en:6
00:46:42.838 : en:7
00:55:18.602 : en:8
01:05:32.464 : en:9
01:12:58.368 : en:10
01:19:04.525 : en:11
01:27:30.238 : en:12
01:35:23.084 : en:13
01:42:49.196 : en:14
01:56:24.386 : en:15
01:59:50.674 : en:16
Релиз от:

Автор релиза: pb.wtf



Скачать Лучшие враги через торрент https://a.radikal.ru/a07/1906/a1/a877da0433fb.jpg Скачать фильм Лучшие враги через торрент бесплантно в хорошем качестве Описание: История о невероятной дружбе между чернокожей правозащитницей Энн Атуотер и членом Ку-клукс-клана Клэйборном Эллисом. Они были ... 8.9 10 8
Info! Золотая раздача, скачанное не засчитывается.
Торрент: Зарегистрирован [2019-06-25 18:12] · скачан: 187 раз
Статус: T временная
Размер: 4.81 GB
Как cкачать? Как скачать Лучшие враги через торрент | qTorrent

% Раздел Тема Автор DL S | L
Фильмы 2019-2020 [DVDrip, WEB-DLRip, HDrip] (DUB, MVO) [ 1.45 GB ] Лучшие враги / The Best of Enemies [2019 биография история BDRip-AVC] MVO - ExKinoRay Enigma2010 Скачать
17 | 0
Фильмы 2019-2020 [DVDrip, WEB-DLRip, HDrip] (DUB, MVO) [ 1.45 GB ] Лучшие враги / The Best of Enemies [2019 биография история BDRip-AVC] MVO [HDRezka Studio] - ExKinoRay Enigma2010 Скачать
4 | 0

28-11-2019 20:33  

Отключить всю рекламу на сайте

25-06-2019 18:13 Лучшие враги Скачать торрент  

Добавлены форсированные русские субтитры на надписи.pb.wtf



25-06-2019 19:44 Лучшие враги Скачать торрент  

Как же достал гАлливуд своей толерастией и феминизмом. Такое ощущение, что ни один из фильмов, вышедших в последнее время, не обходит стороной эти темы. Достали, псы.pb.wtf



26-06-2019 15:11 Лучшие враги Скачать торрент  

Leama писал(а):

Как же достал гАлливуд своей толерастией и феминизмом. Такое ощущение, что ни один из фильмов, вышедших в последнее время, не обходит стороной эти темы. Достали, псы.

определенно с тобой согласен! ещё геев и лизбиянок забыли pb.wtf



    Дорогой пользователь! Огромная просьба, поблагодарите релизера, оцените раздачу и оставьте свои комментарий, если Вы скачали Лучшие враги через торрент бесплатно! Внесите свою лепту в развитие PiratBit!
    Комментировать посты могут только пользователи прошедшие не сложную регистрацию
    Показать сообщения:    

    Лучшие враги через торрент
    Скачать бесплатно Лучшие враги
    Лучшие враги скачать торрент
    Лучшие враги смотреть онлайн
    Cкачать фильм Лучшие враги бесплатно
    Лучшие враги скачать торрент в хорошем качестве
    Лучшие враги смотреть онлайн бесплатно в хорошем качестве


    Вы не можете начинать темы
    Вы не можете отвечать на сообщения
    Вы не можете редактировать свои сообщения
    Вы не можете удалять свои сообщения
    Вы не можете голосовать в опросах
    Вы не можете прикреплять файлы к сообщениям
    Вы можете скачивать файлы