Ссылка на приватное зеркало нашего сайта всего за 1$. Внимание количество ограничено!!!

2 сезон

iTunes

1 сезон

1

2 сезон

2 сезон

iTunes

1 сезон

RePack

30

Ultimate

ВАЖНО

ИГРА 18+

pack

RePack

MK11
pack

Забери бонус

RePack

jed

!!Акция!!

Alien_Rage

RePack

fifa19

RePack

Assassins Creed: Odyssey

RePack

NEED FOR SPEED™ PAYBACK

4 сезон

9 сезон

Бесстыжие 9 сезон

Все сериалы

все сериалы на PB.wtf

RePack

FAR CRY 5
  

Глория / Gloria (Сидни Люмет) [1999 г., криминал, драма, триллер, WEB-DL 1080p] 3xMVO, 2xAVO (Гаврилов, Живов) pb.wtf

Глория через торрент pb.wtf

Размер: 4.66 GB | Добавлен: 1 год 5 мес. назад | Торрент скачан:23 раза
Скачать  

25-06-2019 21:43 Глория Скачать торрент  

Глория / Gloria
Год выпуска: 1999
Страна: США
Жанр: Криминал, драма, триллер
Продолжительность: 01:43:30
Перевод: Профессиональный (многоголосый), авторский (одноголосый)

Режиссер: Сидни Люмет

rating

В ролях: Шэрон Стоун, Жан-Люк Фигероа, Джереми Нортэм, Кэти Мориарти, Джордж К. Скотт, Майк Старр, Бонни Беделиа, Бэрри МакЭвой, Дон Биллет, Тони ДиБенедетто, Бобби Каннавейл, Сарита Чодхери, Мириам Колон, Дезире Казадо, Давениа МакФадден, Чак Купер, Антония Рей, Сидни Армус, Джерри Дин, Джон Хеффернан, Джеймс Лэлли, Лиллиас Уайт, Терри Александер, Джон ДиРеста, Хосе Рабело

Описание: Связавшая свою жизнь с мерзавцем, Глория вынуждена расплачиваться за это сполна. Сначала она отсидит за дружка тюремный срок, взяв вину на себя, а потом судьба сведет ее с малышом, родителей которого убил приятель. Материнский инстинкт возьмет верх над привязанностью к мужчине, тем более, что мальчику теперь грозит смертельная опасность, ведь он - единственный обладатель ценных сведений об опасном гангстере.
Качество: WEB-DL 1080p
Формат: MKV
Видео: MPEG-4 AVC, 5120 Кбит/с, 1920x1080, 25 кадр/с
Аудио #1: Русский, AAC, 2 ch, 256 Кбит/с - Профессиональный многоголосый (НТВ+)
Аудио #2: Русский, AC3, 2 ch, 192 Кбит/с - Профессиональный многоголосый (ОРТ)
Аудио #3: Русский, AC3, 2 ch, 192 Кбит/с - Профессиональный многоголосый (R5)
Аудио #4: Русский, AC3, 2 ch, 192 Кбит/с - Авторский одноголосый (Гаврилов)
Аудио #5: Русский, AC3, 2 ch, 192 Кбит/с - Авторский одноголосый (Живов)
Аудио #6: Английский, AC3, 2 ch, 320 Кбит/с
Видео
Идентификатор : 1
Формат : AVC
Формат/Информация : Advanced Video Codec
Профиль формата : High@L4
Настройки формата : CABAC / 4 Ref Frames
Параметр CABAC формата : Да
Параметр RefFrames формата : 4 кадра
Идентификатор кодека : V_MPEG4/ISO/AVC
Продолжительность : 1 ч. 43 м.
Битрейт : 5120 Кбит/сек
Ширина : 1920 пикселей
Высота : 1080 пикселей
Соотношение сторон : 16:9
Режим частоты кадров : Постоянный
Частота кадров : 25,000 кадров/сек
Цветовое пространство : YUV
Субдискретизация насыщенности : 4:2:0
Битовая глубина : 8 бит
Тип развёртки : Прогрессивная
Бит/(Пиксели*Кадры) : 0.099
Размер потока : 3,68 Гбайт (79%)
Библиотека кодирования : x264 core 142
Настройки программы : cabac=1 / ref=3 / deblock=1:0:0 / analyse=0x3:0x113 / me=hex / subme=7 / psy=1 / psy_rd=1.00:0.00 / mixed_ref=1 / me_range=16 / chroma_me=1 / trellis=1 / 8x8dct=1 / cqm=0 / deadzone=21,11 / fast_pskip=1 / chroma_qp_offset=-2 / threads=48 / lookahead_threads=8 / sliced_threads=0 / nr=0 / decimate=1 / interlaced=0 / bluray_compat=0 / constrained_intra=0 / bframes=6 / b_pyramid=2 / b_adapt=1 / b_bias=0 / direct=1 / weightb=1 / open_gop=0 / weightp=2 / keyint=50 / keyint_min=26 / scenecut=0 / intra_refresh=0 / rc_lookahead=40 / rc=2pass / mbtree=1 / bitrate=5120 / ratetol=1.0 / qcomp=0.60 / qpmin=0 / qpmax=69 / qpstep=4 / cplxblur=20.0 / qblur=0.5 / vbv_maxrate=7680 / vbv_bufsize=20480 / nal_hrd=none / filler=0 / ip_ratio=1.40 / aq=1:1.00
Язык : English
Default : Да
Forced : Нет

Аудио #1
Идентификатор : 2
Формат : AAC LC
Формат/Информация : Advanced Audio Codec Low Complexity
Идентификатор кодека : A_AAC-2
Продолжительность : 1 ч. 43 м.
Битрейт : 256 Кбит/сек
Каналы : 2 канала
Channel layout : L R
Частота : 48,0 КГц
Частота кадров : 46,875 кадров/сек (1024 SPF)
Метод сжатия : С потерями
Размер потока : 190 Мбайт (4%)
Заголовок : НТВ+
Язык : Russian
Default : Да
Forced : Нет

Аудио #2
Идентификатор : 3
Формат : AC-3
Формат/Информация : Audio Coding 3
Коммерческое название : Dolby Digital
Идентификатор кодека : A_AC3
Продолжительность : 1 ч. 43 м.
Вид битрейта : Постоянный
Битрейт : 192 Кбит/сек
Каналы : 2 канала
Channel layout : L R
Частота : 48,0 КГц
Частота кадров : 31,250 кадров/сек (1536 SPF)
Битовая глубина : 16 бит
Метод сжатия : С потерями
Размер потока : 142 Мбайт (3%)
Заголовок : ОРТ
Язык : Russian
ServiceKind/String : Complete Main
Default : Нет
Forced : Нет

Аудио #3
Идентификатор : 4
Формат : AC-3
Формат/Информация : Audio Coding 3
Коммерческое название : Dolby Digital
Идентификатор кодека : A_AC3
Продолжительность : 1 ч. 43 м.
Вид битрейта : Постоянный
Битрейт : 192 Кбит/сек
Каналы : 2 канала
Channel layout : L R
Частота : 48,0 КГц
Частота кадров : 31,250 кадров/сек (1536 SPF)
Битовая глубина : 16 бит
Метод сжатия : С потерями
Размер потока : 142 Мбайт (3%)
Заголовок : R5
Язык : Russian
ServiceKind/String : Complete Main
Default : Нет
Forced : Нет

Аудио #4
Идентификатор : 5
Формат : AC-3
Формат/Информация : Audio Coding 3
Коммерческое название : Dolby Digital
Идентификатор кодека : A_AC3
Продолжительность : 1 ч. 43 м.
Вид битрейта : Постоянный
Битрейт : 192 Кбит/сек
Каналы : 2 канала
Channel layout : L R
Частота : 48,0 КГц
Частота кадров : 31,250 кадров/сек (1536 SPF)
Битовая глубина : 16 бит
Метод сжатия : С потерями
Размер потока : 142 Мбайт (3%)
Заголовок : Гаврилов
Язык : Russian
ServiceKind/String : Complete Main
Default : Нет
Forced : Нет

Аудио #5
Идентификатор : 6
Формат : AC-3
Формат/Информация : Audio Coding 3
Коммерческое название : Dolby Digital
Идентификатор кодека : A_AC3
Продолжительность : 1 ч. 43 м.
Вид битрейта : Постоянный
Битрейт : 192 Кбит/сек
Каналы : 2 канала
Channel layout : L R
Частота : 48,0 КГц
Частота кадров : 31,250 кадров/сек (1536 SPF)
Битовая глубина : 16 бит
Метод сжатия : С потерями
Размер потока : 142 Мбайт (3%)
Заголовок : Живов
Язык : Russian
ServiceKind/String : Complete Main
Default : Нет
Forced : Нет

Аудио #6
Идентификатор : 7
Формат : AC-3
Формат/Информация : Audio Coding 3
Коммерческое название : Dolby Digital
Идентификатор кодека : A_AC3
Продолжительность : 1 ч. 43 м.
Вид битрейта : Постоянный
Битрейт : 320 Кбит/сек
Каналы : 2 канала
Channel layout : L R
Частота : 48,0 КГц
Частота кадров : 31,250 кадров/сек (1536 SPF)
Битовая глубина : 16 бит
Метод сжатия : С потерями
Размер потока : 236 Мбайт (5%)
Язык : English
ServiceKind/String : Complete Main
Default : Нет
Forced : Нет

скриншот   скриншот   скриншот   скриншот   скриншот   скриншот  

pb.wtf



Скачать Глория через торрент http://pic1.kartinco.top/images/12/rif7b.jpg Скачать фильм Глория через торрент бесплантно в хорошем качестве Описание: Связавшая свою жизнь с мерзавцем, Глория вынуждена расплачиваться за это сполна. Сначала она отсидит за дружка тюремный срок, ... 10 10 1
Торрент: Зарегистрирован [2019-06-25 21:43] · скачан: 23 раз
Статус: √ проверено
Размер: 4.66 GB
Как cкачать? Как скачать Глория через торрент | qTorrent

% Раздел Тема Автор DL S | L
Фильмы 2018 [DVDrip, WEB-DLRip, HDrip] (DUB, MVO) [ 745 MB ] Глория Белл / Gloria Bell [2018 HDRip] MVO bober100 Скачать
1 | 0
Фильмы (WEB-DL 720p, 1080p) [ 7.08 GB ] Глория / Gloria [1980 WEB-DL 1080p от KORSAR] [MVO] filbi1976 Скачать
1 | 0
Фильмы [HD 720p, 1080p] (Хороший звук DUB, MVO) [ 10.8 GB ] Глория Белл / Gloria Bell [2018 BDRip 1080p] MVO bober100 Скачать
1 | 0
Фильмы [HD 720p, 1080p] (Хороший звук DUB, MVO) [ 6.25 GB ] Глория Белл / Gloria Bell [2018 BDRip 720p] MVO bober100 Скачать
1 | 0
Фильмы 2018 [DVDrip, WEB-DLRip, HDrip] (DUB, MVO) [ 1.41 GB ] Глория Белл / Gloria Bell [2018 BDRip] MVO bober100 Скачать
1 | 0
Фильмы с авторской озвучкой [ 1.45 GB ] Осада базы Глория / The Siege of Firebase Gloria [1989 военная BDRip] [AVO] killermax2013 Скачать
1 | 0
Фильмы (WEB-DL 720p, 1080p) [ 5.47 GB ] Осада базы Глория / The Siege of Firebase Gloria [1989 военная HDTV 1080i] [DVO] + [AVO] killermax2013 Скачать
1 | 0

28-11-2019 20:33  

Отключить всю рекламу на сайте

    Дорогой пользователь! Огромная просьба, поблагодарите релизера, оцените раздачу и оставьте свои комментарий, если Вы скачали Глория через торрент бесплатно! Внесите свою лепту в развитие PiratBit!
    Комментировать посты могут только пользователи прошедшие не сложную регистрацию
    Показать сообщения:    

    Глория через торрент
    Скачать бесплатно Глория
    Глория скачать торрент
    Глория смотреть онлайн
    Cкачать фильм Глория бесплатно
    Глория скачать торрент в хорошем качестве
    Глория смотреть онлайн бесплатно в хорошем качестве


    Вы не можете начинать темы
    Вы не можете отвечать на сообщения
    Вы не можете редактировать свои сообщения
    Вы не можете удалять свои сообщения
    Вы не можете голосовать в опросах
    Вы не можете прикреплять файлы к сообщениям
    Вы можете скачивать файлы