новый адрес
Ссылка на приватное зеркало всего за 1$. Внимание количество ограничено!!!

iTunes

1+1

iTunes

мы

WEB-DL

1

iTunes

Чернобыль

iTunes

Ральф против интернета

Лицензия

ПШазам

Лицензия

Оно 2

Лицензия

30
pack

Вам бонус

ВАЖНО

!!Акция!!

Alien_RageХит недели

RePack

Resident Evil 21

ИГРА 18+

pack

RePack

jed

!!Акция!!

Alien_Rage

RePack

fifa19

RePack

Assassins Creed: Odyssey

RePack

NEED FOR SPEED™ PAYBACK

3 сезон

9 сезон

Бесстыжие 9 сезон

Все сериалы

все сериалы на PB.wtf

RePack

FAR CRY 5
Ребята, катастрофически не хватает 1900р. для оплаты серверов за Октябрь (всвязи с блокировками трафик упал в 3 раза), 1-2р., выручайте.
  

Лучшие враги / The Best of Enemies (Робин Бисселл) [2019, Драма, биография, история, BDRip-AVC] MVO [HDRezka Studio] - ExKinoRay pb.wtf

Лучшие враги через торрент pb.wtf

Раздают: 12 [ 0 KB/s ]
Размер: 1.45 GB | Добавлен: 5 мес. 3 д. назад | Торрент скачан:98 раз
Скачать  

26-06-2019 00:06 Лучшие враги Скачать торрент  

Название: Лучшие враги
Оригинальное название: The Best of Enemies
Год выпуска: 2019
Жанр: Драма, биография, история
Режиссер: Робин Бисселл
В ролях: Тараджи П. Хенсон, Сэм Рокуэлл, Бабу Сизей, Ник Сирси, Уэс Бентли, Энн Хеч, Брюс МакГилл, Джон Галлахер мл., Ник Ковальчук, Гилберт Гленн Браун

Описание: История о невероятной дружбе между чернокожей правозащитницей Энн Атуотер и членом Ку-клукс-клана Клэйборном Эллисом. Они были ожесточёнными противниками, пока не попали в один комитет по решению расового разделения в школе. Давних врагов объединяет забота о будущем своих детей.

rating

Страна: США
Студия: Astute Films, Material Pictures
Продолжительность: 02:13:47
Перевод: Профессиональный многоголосый (HDRezka Studio)
Субтитры: Русские (forced), английские

БЕЗ КАКОЙ-ЛИБО РЕКЛАМЫ!

Формат: MKV
Качество: BDRip-AVC
Видео: MPEG-4 AVC, 720x300 (2.40:1), 23.976 fps, 1357 Kbps, 0.262 bit/pixel
Аудио #01: 48 kHz, AC3, 2.0, 192 Kbps | RUS | RUS |
General
Unique ID : 184823985151623368975569759300858447884 (0x8B0BCE03BB73828990C798E93200880C)
Complete name : F:\The.Best.of.Enemies.2019.MVO.BDRip.AVC.ExKinoRay.mkv
Format : Matroska
Format version : Version 2
File size : 1.45 GiB
Duration : 2 h 13 min
Overall bit rate : 1 547 kb/s
Movie name : The Best of Enemies 2019 from ExKinoRay
Encoded date : UTC 2019-07-04 02:49:42
Writing application : mkvmerge v5.6.0 ('Kenya Kane') built on May 27 2012 16:44:04
Writing library : libebml v1.2.3 + libmatroska v1.3.0

Video
ID : 1
Format : AVC
Format/Info : Advanced Video Codec
Format profile : High@L4.1
Format settings, CABAC : Yes
Format settings, ReFrames : 11 frames
Codec ID : V_MPEG4/ISO/AVC
Duration : 2 h 13 min
Bit rate : 1 357 kb/s
Width : 720 pixels
Height : 300 pixels
Display aspect ratio : 2.40:1
Frame rate mode : Constant
Frame rate : 23.976 (24000/1001) FPS
Original frame rate : 23.976 (23976/1000) FPS
Color space : YUV
Chroma subsampling : 4:2:0
Bit depth : 8 bits
Scan type : Progressive
Bits/(Pixel*Frame) : 0.262
Stream size : 1.24 GiB (86%)
Title : Enigma
Writing library : x264 core 152 r2851 ba24899
Encoding settings : cabac=1 / ref=11 / deblock=1:-2:-2 / analyse=0x3:0x113 / me=umh / subme=10 / psy=1 / psy_rd=1.00:0.03 / mixed_ref=1 / me_range=32 / chroma_me=1 / trellis=2 / 8x8dct=1 / cqm=0 / deadzone=21,11 / fast_pskip=0 / chroma_qp_offset=-3 / threads=9 / lookahead_threads=2 / sliced_threads=0 / nr=0 / decimate=0 / interlaced=0 / bluray_compat=0 / constrained_intra=0 / bframes=12 / b_pyramid=2 / b_adapt=2 / b_bias=0 / direct=3 / weightb=1 / open_gop=0 / weightp=2 / keyint=240 / keyint_min=23 / scenecut=40 / intra_refresh=0 / rc=2pass / mbtree=0 / bitrate=1357 / ratetol=1.0 / qcomp=0.60 / qpmin=0 / qpmax=51 / qpstep=4 / cplxblur=20.0 / qblur=0.5 / ip_ratio=1.40 / pb_ratio=1.30 / aq=3:0.80
Default : Yes
Forced : No
Color range : Limited
Color primaries : BT.709
Transfer characteristics : BT.709
Matrix coefficients : BT.709

Audio
ID : 2
Format : AC-3
Format/Info : Audio Coding 3
Mode extension : CM (complete main)
Format settings, Endianness : Big
Codec ID : A_AC3
Duration : 2 h 13 min
Bit rate mode : Constant
Bit rate : 192 kb/s
Channel(s) : 2 channels
Channel positions : Front: L R
Sampling rate : 48.0 kHz
Frame rate : 31.250 FPS (1536 spf)
Compression mode : Lossy
Stream size : 184 MiB (12%)
Title : MVO (HDRezka Studio)
Language : Russian
Default : Yes
Forced : No

Text #1
ID : 3
Format : UTF-8
Codec ID : S_TEXT/UTF8
Codec ID/Info : UTF-8 Plain Text
Title : Forced
Language : Russian
Default : Yes
Forced : No

Text #2
ID : 4
Format : UTF-8
Codec ID : S_TEXT/UTF8
Codec ID/Info : UTF-8 Plain Text
Language : English
Default : No
Forced : No

Menu
00:00:00.000 : en:Chapter 01
00:04:28.566 : en:Chapter 02
00:10:38.349 : en:Chapter 03
00:15:58.653 : en:Chapter 04
00:18:57.192 : en:Chapter 05
00:25:12.746 : en:Chapter 06
00:32:07.838 : en:Chapter 07
00:40:08.602 : en:Chapter 08
00:46:43.464 : en:Chapter 09
00:52:23.368 : en:Chapter 10
00:57:22.525 : en:Chapter 11
01:03:12.238 : en:Chapter 12
01:13:21.084 : en:Chapter 13
01:22:00.196 : en:Chapter 14
01:28:30.386 : en:Chapter 15
01:35:46.674 : en:Chapter 16
01:43:12.769 : en:Chapter 17
01:51:25.720 : en:Chapter 18
01:56:47.959 : en:Chapter 19
02:04:38.596 : en:Chapter 20
Релиз от:

Автор релиза: pb.wtf



Скачать Лучшие враги через торрент https://a.radikal.ru/a07/1906/a1/a877da0433fb.jpg Скачать фильм Лучшие враги через торрент бесплантно в хорошем качестве Описание: История о невероятной дружбе между чернокожей правозащитницей Энн Атуотер и членом Ку-клукс-клана Клэйборном Эллисом. Они были ... 8.8 10 5
Info! Золотая раздача, скачанное не засчитывается.
Торрент: Зарегистрирован [2019-07-04 03:29] · скачан: 98 раз
Статус: √ проверено
Размер: 1.45 GB
Как cкачать? Как скачать Лучшие враги через торрент | qTorrent

% Раздел Тема Автор DL S | L
Фильмы 2019 [DVDrip, WEB-DLRip, HDrip] (DUB, MVO) [ 1.45 GB ] Лучшие враги / The Best of Enemies [2019 биография история BDRip-AVC] MVO - ExKinoRay Enigma2010 Скачать
31 | 2
T Фильмы (WEB-DL 720p, 1080p) [ 4.81 GB ] Лучшие враги / The Best of Enemies [2019 биография история WEB-DL 1080p] MVO [HDRezka Studio] - ExKinoRay Enigma2010 Скачать
30 | 1

28-11-2019 20:33  

Отключить всю рекламу на сайте

    Дорогой пользователь! Огромная просьба, поблагодарите релизера, оцените раздачу и оставьте свои комментарий, если Вы скачали Лучшие враги через торрент бесплатно! Внесите свою лепту в развитие PiratBit!
    Комментировать посты могут только пользователи прошедшие не сложную регистрацию
    Показать сообщения:    

    Лучшие враги через торрент
    Скачать бесплатно Лучшие враги
    Лучшие враги скачать торрент
    Лучшие враги смотреть онлайн
    Cкачать фильм Лучшие враги бесплатно
    Лучшие враги скачать торрент в хорошем качестве
    Лучшие враги смотреть онлайн бесплатно в хорошем качестве


    Вы не можете начинать темы
    Вы не можете отвечать на сообщения
    Вы не можете редактировать свои сообщения
    Вы не можете удалять свои сообщения
    Вы не можете голосовать в опросах
    Вы не можете прикреплять файлы к сообщениям
    Вы можете скачивать файлы