MEGA SALE -75% Borderlands 3 Super Deluxe всего за 550р. 180 руб. (супер цена). Внимание количество ограничено!!!

iTunes

1+1

iTunes

мы

iTunes

1

iTunes

Чернобыль

iTunes

Ральф против интернета

Лицензия

ПШазам

Лицензия

Игра престолов

Лицензия

30
pack

ВАЖНО

!!Акция!!

Alien_RageХит недели

RePack

Resident Evil 21

ИГРА 18+

pack

RePack

Metro:Exodus

!!Акция!!

Alien_Rage

RePack

fifa19

RePack

Assassins Creed: Odyssey

RePack

NEED FOR SPEED™ PAYBACK

3 сезон

9 сезон

Бесстыжие 9 сезон

Все сериалы

все сериалы на PB.wtf

RePack

FAR CRY 5
Ребята, катастрофически не хватает 1900р. для оплаты серверов за АВГУСТ (всвязи с блокировками трафик упал в 3 раза), 1-2р., выручайте.
  

Город на холме / City on a Hill / Сезон: 1 / Серии: 1-10 из 10 (Хагар Бен-Ашер) [2019, Триллер, драма, криминал, WEBRip 720p] [MVO] (LostFilm) pb.wtf

Город на холме через торрент pb.wtf

Размер: 19.48 GB | Добавлен: 1 мес. 24 д. назад | Торрент скачан:5 раз
Скачать  

26-06-2019 12:57 Город на холме Скачать торрент  

Город на холме | City on a Hill
«Only the bad understand»

Производство: США
Год выпуска: 2019
Жанр: триллер, драма, криминал
Продолжительность: ~ 01:02:00 серия
Перевод: Профессиональный (многоголосый закадровый) | LostFilm
Режиссер: Хагар Бен-Ашер, Эдвард Бьянчи, Майкл Куэста

В ролях: Кевин Бэйкон, Элдис Ходж, Джонатан Такер, Марк О'Брайэн, Лорен Е. Бэнкс, Джилл Хеннесси, Джир Ши, Аманда Клэйтон, Кевин Чэпмен, Нора Мерфи
Описание фильма:
Действие разворачивается в начале 1990-х в Бостоне, погрязшем в преступности, коррупции и расизме. Однажды в городе появляется новый чернокожий окружной прокурор из Бруклина, Декорси Уорд, который намерен во что бы то ни стало изменить существующие порядки. Герой вынужден заключить сомнительный союз с коррумпированным, но уважаемым ветераном ФБР Джеки Роудсом. Уорд надеется с его помощью выйти на след опасной банды налётчиков на инкассаторов. Вскоре их сотрудничество навсегда меняет систему уголовного правосудия в Бостоне.


Качество видео: WEBRip 720p
Формат: MKV
Видео: AVC, 1280 x 720 (1.778), 23.976 fps, ~4547 kbps
Аудио Rus: AC-3, 48 kHz, 2 ch, 192 kbps |LostFilm|
Аудио Eng: E-AC-3, 48 kHz, 6 ch, 640 kbps |Original|
Субтитры: Eng (SDH)
Реклама: Отсутствует

Общее
Уникальный идентификатор : 253738999790866999150609383011667993519 (0xBEE45A9109D1ECEA10932D9CFF98E3AF)
Полное имя : E:\_Сериалы\_Сериалы\Город на холме\City.on.a.Hill.S01.720p.WEBRip.LostFilm\City.on.a.Hill.S01E01.720p.WEBRip.LostFilm.mkv
Формат : Matroska
Версия формата : Version 4
Размер файла : 2,36 Гбайт
Продолжительность : 1 ч. 2 м.
Общий поток : 5381 Кбит/сек
Дата кодирования : UTC 2019-06-21 15:21:59
Программа кодирования : mkvmerge v34.0.0 ('Sight and Seen') 64-bit
Библиотека кодирования : libebml v1.3.7 + libmatroska v1.5.0

Видео
Идентификатор : 1
Формат : AVC
Формат/Информация : Advanced Video Codec
Профиль формата : High@L3.1
Настройки формата : CABAC / 4 Ref Frames
Параметр CABAC формата : Да
Параметр RefFrames формата : 4 кадра
Идентификатор кодека : V_MPEG4/ISO/AVC
Продолжительность : 1 ч. 2 м.
Вид битрейта : Постоянный
Битрейт : 4547 Кбит/сек
Номинальный битрейт : 6000 Кбит/сек
Ширина : 1280 пикселей
Высота : 720 пикселей
Соотношение сторон : 16:9
Режим частоты кадров : Постоянный
Частота кадров : 23,976 (24000/1001) кадра/сек
Цветовое пространство : YUV
Субдискретизация насыщенности : 4:2:0
Битовая глубина : 8 бит
Тип развёртки : Прогрессивная
Бит/(Пиксели*Кадры) : 0.206
Размер потока : 1,99 Гбайт (84%)
Default : Да
Forced : Нет
Цветовой диапазон : Limited
Основные цвета : BT.709
Характеристики трансфера : BT.709
Коэффициенты матрицы : BT.709

Аудио #1
Идентификатор : 2
Формат : AC-3
Формат/Информация : Audio Coding 3
Коммерческое название : Dolby Digital
Идентификатор кодека : A_AC3
Продолжительность : 1 ч. 2 м.
Вид битрейта : Постоянный
Битрейт : 192 Кбит/сек
Каналы : 2 канала
Channel layout : L R
Частота : 48,0 КГц
Частота кадров : 31,250 кадров/сек (1536 SPF)
Битовая глубина : 16 бит
Метод сжатия : С потерями
Размер потока : 86,2 Мбайт (4%)
Язык : Russian
ServiceKind/String : Complete Main
Default : Нет
Forced : Нет

Аудио #2
Идентификатор : 3
Формат : E-AC-3
Формат/Информация : Enhanced AC-3
Коммерческое название : Dolby Digital Plus
Идентификатор кодека : A_EAC3
Продолжительность : 1 ч. 2 м.
Вид битрейта : Постоянный
Битрейт : 640 Кбит/сек
Каналы : 6 каналов
Channel layout : L R C LFE Ls Rs
Частота : 48,0 КГц
Частота кадров : 31,250 кадров/сек (1536 SPF)
Метод сжатия : С потерями
Задержка видео : 18 мс.
Размер потока : 287 Мбайт (12%)
Язык : English
ServiceKind/String : Complete Main
Default : Да
Forced : Нет

Текст
Идентификатор : 4
Формат : UTF-8
Идентификатор кодека : S_TEXT/UTF8
Идентификатор кодека/Информация : UTF-8 Plain Text
Продолжительность : 1 ч. 0 м.
Битрейт : 75 бит/сек
ElementCount : 1162
Размер потока : 33,6 Кбайт (0%)
Заголовок : SDH
Язык : English
Default : Нет
Forced : Нет

скриншот  скриншот  скриншот  

Раздача ведётся путём добавления новых серий; при каждом добавлении создаётся новый торрент.
Чтобы начать докачку новой серии, пользователям необходимо сделать следующее:
1. остановить скачивание,
2. удалить старый торрент у себя из клиента (старые серии удалять не надо),
3. скачать новый торрент и запустить его у себя в клиенте вместо старого, при этом указать клиенту путь в старую папку, куда и должно происходить скачивание новых серий.

Ваш клиент при этом должен произвести хеширование (проверку) старой папки (если не производит сам - помогите ему сделать это), и будет докачивать только те серии которых у вас ещё нет. Старые серии при этом не удаляются, а продолжают раздаваться!

Eсли вы уже удалили старые серии, то предотвратить повторную закачку старых серий можно, отжав галочку в соответствующих местах при запуске нового торрента. По возможности, желательно не удалять старые серии как можно дольше, чтобы релизёр не столько продолжал раздавать старые серии, а смог сконцентрироваться на новых.

Совет для тех, кто не хочет ждать перехеширования:
Создайте ещё одну папку рядом с папкой сериала (рядом, а не в ней!!!). Каждую новую серию после удачной загрузки копируйте в новую папку так чтобы ваша основная папка всегда была пуста. Когда ваш новый торрент предложит вам закачать все файлы, выберете только последнюю. Для сидирования же укажите адрес новой папки.

Как закачать отдельный файл из торрента или докачать ранее пропущенные файлы торрента!

1. Открыть торрент
2. Снять галки с тех файлов торрента, которые мы не хотим закачивать. Оставляем только на нужных нам файлах (файле).
3. Нажать О.К.

В клиенте utorrent

Инструкция

1) Открыть торрент


2) Снять галки с тех файлов торрента, которые мы не хотим закачивать:

* либо вручную, снимая с каждого файла галку( скрин №1)
* либо, нажав кнопку "Снять метки (Select None)", сняв сразу со всех файлов(скрин №2)
№1

№2

Оставляем только на нужных нам файлах (файле).

3)Нажать О.К

Приятного просмотра!!!pb.wtf



Скачать Город на холме через торрент https://i4.imageban.ru/out/2019/06/21/67fa2f49c5b2d91d1435a2951e491e32.png Скачать фильм Город на холме через торрент бесплантно в хорошем качестве Описание фильма:Действие разворачивается в начале 1990-х в Бостоне, погрязшем в преступности, коррупции и расизме. Однажды в городе ... 10 10 2
Торрент: Зарегистрирован [2019-08-21 13:28] · скачан: 5 раз
Статус: √ проверено
Размер: 19.48 GB
Как cкачать? Как скачать Город на холме через торрент | qTorrent

% Раздел Тема Автор DL S | L
Зарубежные сериалы [ 42.21 GB ] Город на холме / City on a Hill / Сезон: 1 / Серии: 1-10 из 10 [2019 WEB-DL 1080p] MVO [Lostfilm] bober100 Скачать
1 | 0
Зарубежные сериалы [ 25.48 GB ] Город на холме / City on a Hill / Сезон: 1 / Серия: 1-10 из 10 [2019 WEB-DL 720p] 3x[MVO] killermax2013 Скачать
1 | 0
Зарубежные сериалы [ 20.17 GB ] Город на холме / City on a Hill / Сезон: 1 / Серии: 1-10 из 10 [2019 WEB-DL 720p] MVO [TVShows] bober100 Скачать
1 | 0
T Зарубежные сериалы [ 8.73 GB ] Город на холме / City on a Hill / Сезон: 1 / Серии: 1-10 из 10 [2019 WEB-DLRip] MVO [IdeaFilm] bober100 Скачать
2 | 1
Зарубежные сериалы [ 15.85 GB ] Город на холме / City on a Hill / Сезон: 1 / Серии: 1-8 из 10 [2019 WEB-DL 720p] MVO [Amedia] bober100 Скачать
2 | 0
Зарубежные сериалы [ 42.61 GB ] Город на холме / City on a Hill / Сезон: 1 / Серии: 1-10 из 10 [2019 WEB-DL 1080p] MVO [Amedia] bober100 Скачать
1 | 0
Зарубежные сериалы [ 8 GB ] Город на холме / City on a Hill / Сезон: 1 / Серии: 1-10 из 10 [2019 WEBRip] MVO [LostFilm] bober100 Скачать
6 | 0


>> Регистрируемся здесь <<






Отзывы и комментарии о схеме читаем и пишем здесь: ---> Отзывы и комментарии о схеме

Новые благодарочки в телеграм довольных пользователей:
скриншот   скриншот   скриншот   скриншот   скриншот
    Дорогой пользователь! Огромная просьба, поблагодарите релизера, оцените раздачу и оставьте свои комментарий, если Вы скачали Город на холме через торрент бесплатно! Внесите свою лепту в развитие PiratBit!
    Комментировать посты могут только пользователи прошедшие не сложную регистрацию
    Показать сообщения:    

    Город на холме через торрент
    Скачать бесплатно Город на холме
    Город на холме скачать торрент
    Город на холме смотреть онлайн
    Cкачать фильм Город на холме бесплатно
    Город на холме скачать торрент в хорошем качестве
    Город на холме смотреть онлайн бесплатно в хорошем качестве


    Вы не можете начинать темы
    Вы не можете отвечать на сообщения
    Вы не можете редактировать свои сообщения
    Вы не можете удалять свои сообщения
    Вы не можете голосовать в опросах
    Вы не можете прикреплять файлы к сообщениям
    Вы можете скачивать файлы