Мега распродажа FORZA HORIZON 4 ULTIMATE+ВСЕ DLC+ОНЛАЙН всего за 499р. 349 руб. (супер цена). Внимание количество ограничено!!!

iTunes

1+1

iTunes

мы

iTunes

1

1 сезон

Чернобыль

1 сезон

Ральф против интернета

Лицензия

ПШазам

8 сезон

Игра престолов

Лицензия

30
pack

ВАЖНО

!!Акция!!

Alien_RageХит недели

RePack

Resident Evil 21

ИГРА 18+

pack

RePack

Metro:Exodus

!!Акция!!

Alien_Rage

RePack

fifa19

RePack

Assassins Creed: Odyssey

RePack

NEED FOR SPEED™ PAYBACK

3 сезон

9 сезон

Бесстыжие 9 сезон

Все сериалы

все сериалы на PB.wtf

RePack

FAR CRY 5
Ребята, катастрофически не хватает 2730р. для оплаты серверов за ИЮНЬ (всвязи с блокировками трафик упал в 3 раза), 1-2р., выручайте.
  

Тьма / Dark / Сезон: 2 / Серии: 1-6 из 8 (Баран бо Одар) [2019, Триллер, драма, криминал, детектив, WEBRip] [MVO] (Profix Media) pb.wtf

Тьма через торрент pb.wtf

Размер: 3.86 GB | Добавлен: 18 д. назад | Торрент скачан:7 раз
Скачать  

26-06-2019 13:09 Тьма Скачать торрент  

ТЬМАDark
Год выпуска: 2019
Страна: Германия, США
Жанр: Триллер, драма, криминал, детектив
Продолжительность: ~00:50:00
Перевод: Профессиональный (многоголосый закадровый) Студия «Profix Media»
Режиссёр: Баран бо Одар

В ролях: Оливер Мазуччи, Каролина Эйхгорн, Йордис Трибель, Луис Хофманн, Майя Шёне, Штефан Кампвирт, Андреас Пичман, Дебора Кауфман, Татя Зайбт
Описание: История четырёх семей, живущих спокойной и размеренной жизнью в маленьком немецком городке. Видимая идиллия рушится, когда бесследно исчезают двое детей и воскресают тёмные тайны прошлого. Все силы местного департамента полиции и горожан брошены на поиски пропавших детей. Все повторяется, как и 33 года назад. Что-то не так в городе. Эта местность, словно больна и одержима мистикой. А самое страшное, что убийца, возможно, ходит среди обитателей деревушки.
rating
Сэмпл
Раздача -- JuSSiKa
Качество: WEBRip
Формат: AVI
Видео: XviD, 704x352 (16:9), 24,000 fps, ~1450 kbps
Аудио Rus: MP3, 48 kHz, 2 ch, 128 kbps
Аудио Ger: MP3, 48 kHz, 2 ch, 128 kbps
Субтитры: отсутствуют
Реклама: отсутствует
Полное имя : Dark.S02.WEBRip.Profix.Media\Dark.S02E01.WEBRip.Profix.Media.JuSSiKa.avi
Формат : AVI
Формат/Информация : Audio Video Interleave
Размер файла : 650 Мбайт
Продолжительность : 53 м. 32 с.
Общий поток : 1698 Кбит/сек
Программа кодирования : VirtualDubMod 1.5.10.3 (build 2550/release)
Библиотека кодирования : VirtualDubMod build 2550/release

Видео
Идентификатор : 0
Формат : MPEG-4 Visual
Профиль формата : Advanced Simple@L5
Настройки формата : BVOP1
Параметр BVOP формата : 1
Параметр QPel формата : Нет
Параметр GMC формата : Без точки перехода
Параметр матрицы формата : Default (H.263)
Идентификатор кодека : XVID
Идентификатор кодека/Подсказка : XviD
Продолжительность : 53 м. 32 с.
Битрейт : 1428 Кбит/сек
Ширина : 704 пикселя
Высота : 352 пикселя
Соотношение сторон : 2,000
Частота кадров : 24,000 кадра/сек
Цветовое пространство : YUV
Субдискретизация насыщенности : 4:2:0
Битовая глубина : 8 бит
Тип развёртки : Прогрессивная
Метод сжатия : С потерями
Бит/(Пиксели*Кадры) : 0.240
Размер потока : 547 Мбайт (84%)
Библиотека кодирования : XviD 1.2.1 (UTC 2008-12-04)

Аудио #1
Идентификатор : 1
Формат : MPEG Audio
Версия формата : Version 1
Профиль формата : Layer 3
Настройки формата : Joint stereo / MS Stereo
Режим : Joint stereo
Расширение режима : MS Stereo
Идентификатор кодека : 55
Идентификатор кодека/Подсказка : MP3
Продолжительность : 53 м. 32 с.
Вид битрейта : Постоянный
Битрейт : 128 Кбит/сек
Каналы : 2 канала
Частота : 48,0 КГц
Метод сжатия : С потерями
Размер потока : 49,0 Мбайт (8%)
Выравнивание : Соединение по промежуткам
Продолжительность промежутка : 42 мс. (1,00 видеокадр)
Время предзагрузки промежутка : 504 мс.

Аудио #2
Идентификатор : 2
Формат : MPEG Audio
Версия формата : Version 1
Профиль формата : Layer 3
Настройки формата : Joint stereo / MS Stereo
Режим : Joint stereo
Расширение режима : MS Stereo
Идентификатор кодека : 55
Идентификатор кодека/Подсказка : MP3
Продолжительность : 53 м. 32 с.
Вид битрейта : Постоянный
Битрейт : 128 Кбит/сек
Каналы : 2 канала
Частота : 48,0 КГц
Метод сжатия : С потерями
Размер потока : 49,0 Мбайт (8%)
Выравнивание : Соединение по промежуткам
Продолжительность промежутка : 42 мс. (1,00 видеокадр)
Время предзагрузки промежутка : 504 мс.
скриншот  скриншот  скриншот  
Внимание! Раздача ведётся путём добавления новых серий; при каждом добавлении создаётся новый торрент. Чтобы начать докачку новой серии, пользователям необходимо сделать следующее:
(1) остановить скачивание,
(2) удалить старый торрент у себя из клиента (старые серии удалять не надо),
(3) скачать новый торрент и запустить его у себя в клиенте вместо старого, при этом указать клиенту путь в старую папку куда и должно происходить скачивание новых серий.

Ваш клиент при этом должен произвести хеширование (проверку) старой папки (если не производит сам - помогите ему сделать это), и будет докачивать только те серии которых у вас ещё нет. Старые серии при этом не удаляются, а продолжают раздаваться!

Eсли вы уже удалили старые серии, то предотвратить повторную закачку старых серий можно, отжав галочку в соответствующих местах при запуске нового торрента. По возможности, желательно не удалять старые серии как можно дольше чтобы релизёр не столько продолжал раздавать старые серии, а смог сконцентрироваться на новых.
pb.wtf



Скачать Тьма через торрент https://i110.fastpic.ru/big/2019/0625/07/559164b3882690823a1bcabb1110a507.png Скачать фильм Тьма через торрент бесплантно в хорошем качестве Описание: История четырёх семей, живущих спокойной и размеренной жизнью в маленьком немецком городке. Видимая идиллия рушится, когда ... 5 10 1
Торрент: Зарегистрирован [2019-07-02 13:45] · скачан: 7 раз
Статус: √ проверено
Размер: 3.86 GB
Как cкачать? Как скачать Тьма через торрент | qTorrent


>> Регистрируемся здесь <<






Отзывы и комментарии о схеме читаем и пишем здесь: ---> Отзывы и комментарии о схеме

Новые благодарочки в телеграм довольных пользователей:
скриншот   скриншот   скриншот   скриншот   скриншот
    Дорогой пользователь! Огромная просьба, поблагодарите релизера, оцените раздачу и оставьте свои комментарий, если Вы скачали Тьма через торрент бесплатно! Внесите свою лепту в развитие PiratBit!
    Комментировать посты могут только пользователи прошедшие не сложную регистрацию
    Показать сообщения:    

    Тьма через торрент
    Скачать бесплатно Тьма
    Тьма скачать торрент
    Тьма смотреть онлайн
    Cкачать фильм Тьма бесплатно
    Тьма скачать торрент в хорошем качестве
    Тьма смотреть онлайн бесплатно в хорошем качестве


    Вы не можете начинать темы
    Вы не можете отвечать на сообщения
    Вы не можете редактировать свои сообщения
    Вы не можете удалять свои сообщения
    Вы не можете голосовать в опросах
    Вы не можете прикреплять файлы к сообщениям
    Вы можете скачивать файлы