MEGA SALE -75% Borderlands 3 Super Deluxe всего за 550р. 180 руб. (супер цена). Внимание количество ограничено!!!

iTunes

1+1

iTunes

мы

iTunes

1

iTunes

Чернобыль

iTunes

Ральф против интернета

Лицензия

ПШазам

Лицензия

Игра престолов

Лицензия

30
pack

ВАЖНО

!!Акция!!

Alien_RageХит недели

RePack

Resident Evil 21

ИГРА 18+

pack

RePack

Metro:Exodus

!!Акция!!

Alien_Rage

RePack

fifa19

RePack

Assassins Creed: Odyssey

RePack

NEED FOR SPEED™ PAYBACK

3 сезон

9 сезон

Бесстыжие 9 сезон

Все сериалы

все сериалы на PB.wtf

RePack

FAR CRY 5
Ребята, катастрофически не хватает 1900р. для оплаты серверов за АВГУСТ (всвязи с блокировками трафик упал в 3 раза), 1-2р., выручайте.
  

По ту сторону ринга / Темная сторона ринга / Dark Side of the Ring / Сезон: 1 / Серии: 1-6 из 6 (Джейсон Айзенер) [2019, драма, история, WEBRip 1080p] [MVO] (AMS) pb.wtf

По ту сторону ринга через торрент pb.wtf

Размер: 7.17 GB | Добавлен: 3 мес. 18 д. назад | Торрент скачан:11 раз
Скачать  

26-06-2019 13:18 По ту сторону ринга Скачать торрент  

По ту сторону ринга / Темная сторона ринга / Dark Side of the Ring

Год выпуска: 2019
Страна: США
Жанр: Драма, история
Продолжительность: ~ 00:45:00

Перевод: Профессиональный (многоголосый закадровый) (AMS)

Режиссёр: Джейсон Айзенер

В ролях: Дач Мантел, Брюс Причард, Джеймс Е. Корнетт, Дэвид Мэннинг, Джэйк Робертс, Скотт Холл, Эрик Бишофф, Кевин Фон Эрих и другие

Описание:
Перед вами потрясающий проект, который предлагает зрителям углубиться в атмосферу профессионального реслинга. Главные действующие лица этого сериала - представители этой удивительной шоу-индустрии. Авторы рассказывают о том, что за кулисами популярного и невероятного проекта оказываются по-настоящему ужасные события, от которых могут пойти мурашки по коже! Кто бы мог подумать, что за продолжительную и богатую историю реслинга вне камер происходили по-настоящему серьзные стычки, невероятные столкновения интересов, взглядов, характеров и людей, которые готовы ради своей цели пойти на все.

rating
Сэмпл

Качество: WEBRip 1080p
Контейнер: MKV

Видео: AVC, 1920x1080 (16:9), 23.976 fps, ~ 3500 kbps, 0.070 bit/pixel
Аудио 1: Русский, AC3, 48 KHz, 2 channels, 192 kbps
Аудио 2: Английский, AC3, 48 KHz, 2 channels, 192 kbps
Субтитры: Английские [Softsub SRT]
General
Unique ID : 207091627097262861573865073140811858184 (0x9BCC6586A6751410BE31BF8B07C68108)
Complete name : /Dark.Side.Of.The.Ring.S01.1080p.WEBRip.AMS/Dark.Side.Of.The.Ring.S01E01.1080p.WEBRip.AMS.mkv
Format : Matroska
Format version : Version 4
File size : 1.20 GiB
Duration : 44mn 5s
Overall bit rate : 3 886 Kbps
Movie name : Dark Side Of The Ring 1x01 - AMS
Encoded date : UTC 2019-05-30 21:00:35
Writing application : mkvmerge v8.2.0 ('World of Adventure') 64bit
Writing library : libebml v1.3.1 + libmatroska v1.4.2

Video
ID : 1
Format : AVC
Format/Info : Advanced Video Codec
Format profile : High@L4
Format settings : CABAC / 4 Ref Frames
Format settings, CABAC : Yes
Format settings, ReFrames : 4 frames
Codec ID : V_MPEG4/ISO/AVC
Duration : 44mn 4s
Bit rate : 3 500 Kbps
Width : 1 920 pixels
Height : 1 080 pixels
Display aspect ratio : 16:9
Frame rate mode : Constant
Frame rate : 23.976 (24000/1001) fps
Color space : YUV
Chroma subsampling : 4:2:0
Bit depth : 8 bits
Scan type : Progressive
Bits/(Pixel*Frame) : 0.070
Stream size : 1.08 GiB (90%)
Title : Dark Side Of The Ring 1x01 - AMS
Writing library : x264 core 148 r2579M 73ae2d1
Encoding settings : cabac=1 / ref=2 / deblock=1:0:0 / analyse=0x3:0x113 / me=hex / subme=2 / psy=1 / psy_rd=1.00:0.00 / mixed_ref=0 / me_range=16 / chroma_me=1 / trellis=0 / 8x8dct=1 / cqm=0 / deadzone=21,11 / fast_pskip=1 / chroma_qp_offset=0 / threads=4 / lookahead_threads=1 / sliced_threads=0 / nr=250 / decimate=1 / interlaced=0 / bluray_compat=0 / stitchable=1 / constrained_intra=0 / bframes=3 / b_pyramid=2 / b_adapt=1 / b_bias=0 / direct=1 / weightb=1 / open_gop=0 / weightp=1 / keyint=250 / keyint_min=24 / scenecut=40 / intra_refresh=0 / rc_lookahead=10 / rc=2pass / mbtree=1 / bitrate=3500 / ratetol=1.0 / qcomp=0.60 / qpmin=5 / qpmax=69 / qpstep=4 / cplxblur=20.0 / qblur=0.5 / ip_ratio=1.40 / aq=1:1.00
Language : English
Default : Yes
Forced : No

Audio #1
ID : 2
Format : AC-3
Format/Info : Audio Coding 3
Commercial name : Dolby Digital
Codec ID : A_AC3
Duration : 44mn 5s
Bit rate mode : Constant
Bit rate : 192 Kbps
Channel(s) : 2 channels
Channel layout : L R
Sampling rate : 48.0 KHz
Frame rate : 31.250 fps (1536 SPF)
Bit depth : 16 bits
Compression mode : Lossy
Stream size : 60.5 MiB (5%)
Title : MVO AMS
Language : Russian
Service kind : Complete Main
Default : Yes
Forced : No

Audio #2
ID : 3
Format : AC-3
Format/Info : Audio Coding 3
Commercial name : Dolby Digital
Codec ID : A_AC3
Duration : 44mn 5s
Bit rate mode : Constant
Bit rate : 192 Kbps
Channel(s) : 2 channels
Channel layout : L R
Sampling rate : 48.0 KHz
Frame rate : 31.250 fps (1536 SPF)
Bit depth : 16 bits
Compression mode : Lossy
Stream size : 60.5 MiB (5%)
Title : Original
Language : English
Service kind : Complete Main
Default : No
Forced : No

Text
ID : 4
Format : UTF-8
Codec ID : S_TEXT/UTF8
Codec ID/Info : UTF-8 Plain Text
Duration : 43mn 59s
Bit rate : 91 bps
Count of elements : 1017
Stream size : 29.5 KiB (0%)
Language : English
Default : No
Forced : No
скриншот  скриншот  скриншот  
pb.wtf



Скачать По ту сторону ринга через торрент https://b.radikal.ru/b37/1906/a0/66892b2c0d04.jpg Скачать фильм По ту сторону ринга через торрент бесплантно в хорошем качестве Описание:Перед вами потрясающий проект, который предлагает зрителям углубиться в атмосферу профессионального реслинга. Главные действующие ... 5 10 1
Торрент: Зарегистрирован [2019-06-26 13:18] · скачан: 11 раз
Статус: √ проверено
Размер: 7.17 GB
Как cкачать? Как скачать По ту сторону ринга через торрент | qTorrent


>> Регистрируемся здесь <<






Отзывы и комментарии о схеме читаем и пишем здесь: ---> Отзывы и комментарии о схеме

Новые благодарочки в телеграм довольных пользователей:
скриншот   скриншот   скриншот   скриншот   скриншот

28-06-2019 13:42 По ту сторону ринга Скачать торрент  

Полная херня!pb.wtf



    Дорогой пользователь! Огромная просьба, поблагодарите релизера, оцените раздачу и оставьте свои комментарий, если Вы скачали По ту сторону ринга через торрент бесплатно! Внесите свою лепту в развитие PiratBit!
    Комментировать посты могут только пользователи прошедшие не сложную регистрацию
    Показать сообщения:    

    По ту сторону ринга через торрент
    Скачать бесплатно По ту сторону ринга
    По ту сторону ринга скачать торрент
    По ту сторону ринга смотреть онлайн
    Cкачать фильм По ту сторону ринга бесплатно
    По ту сторону ринга скачать торрент в хорошем качестве
    По ту сторону ринга смотреть онлайн бесплатно в хорошем качестве


    Вы не можете начинать темы
    Вы не можете отвечать на сообщения
    Вы не можете редактировать свои сообщения
    Вы не можете удалять свои сообщения
    Вы не можете голосовать в опросах
    Вы не можете прикреплять файлы к сообщениям
    Вы можете скачивать файлы