Ссылка на приватное зеркало нашего сайта всего за 1$. Внимание количество ограничено!!!

2 сезон

iTunes

1 сезон

1

2 сезон

2 сезон

iTunes

1 сезон

RePack

30

Новинка

ВАЖНО

ИГРА 18+

pack

RePack

MK11
pack

Забери бонус

RePack

jed

!!Акция!!

Alien_Rage

RePack

fifa19

RePack

Assassins Creed: Odyssey

RePack

NEED FOR SPEED™ PAYBACK

4 сезон

9 сезон

Бесстыжие 9 сезон

Все сериалы

все сериалы на PB.wtf

RePack

FAR CRY 5
  

Перец-таймс / Время дворников / Вайпер таймс / The Wipers Times (Энди де Эммони / Andy DeEmmony) [2013, Военный, драма, WEBRip 720p] [MVO] (SDI Media) pb.wtf

Перец-таймс через торрент pb.wtf

Размер: 2.64 GB | Добавлен: 1 год 5 мес. назад | Торрент скачан:38 раз
Скачать  

26-06-2019 15:33 Перец-таймс Скачать торрент  

Перец-таймс / Время дворников / Вайпер таймс / The Wipers Times

Страна: Великобритания
Жанр: военный, драма
Год выпуска: 2013
Продолжительность: 01:35:37
Перевод: Профессиональный (многоголосый закадровый) | SDI Media
Субтитры: нет

Режиссер: Энди де Эммони / Andy DeEmmony
В ролях: Бен Чаплин, Патрик Фицсимонс, Джулиан Райнд-Татт, Стив Орам, Джош О’Коннор, Джаррод Кук, Колин Эш, Хью Скиннер, Бен Дэниелс, Майкл Пэйлин
Описание:
Капитан Фред Робертс обнаружил пишущую машинку в руинах города Ипр, Бельгия в 1916 году. Сразу ему в голову пришла идея печатать на ней сатирический журнал под названием «The Wipers Times». Юмор с радостью был принят многими читателями. Конечно, приходилось печатать под обстрелами, во время газовых атак или нападок правительства, но, тем не менее, журнал стал очень популярным на Западном фронте. Прежде всего, он олицетворял стойкость человеческого духа перед лицом невзгод. В свободное от издательства время, Робертс воевал и успел заработать Военный крест за храбрость.
rating

Сэмпл: https://yadi.sk/i/CDU8EwX5FkqlJw

Качество видео: WEBRip 720p
Формат видео: MKV

Видео: MPEG4 Video (H264), 1280x720, 23.976 fps, Bit rate 3 043 kb/s, 0.138 bit/pixel
Аудио 1: AC3 Dolby Digital, 48000Hz, 2/0 (L,R) ch (stereo), 192 kbps avg
Аудио 2: AC3 Dolby Digital, 48000Hz 6ch 640 kb/s English
Формат субтитров: softsub (SRT)
The.Wipers.Times.2013.720p.Rus.mkv
Format : Matroska
Format version : Version 2
File size : 2.64 GiB
Duration : 1 h 35 min
Overall bit rate mode : Variable
Overall bit rate : 3 954 kb/s
Encoded date : UTC 2019-06-25 03:27:27
Writing application : mkvmerge v6.9.1 ('Blue Panther') 32bit built on Apr 18 2014 18:15:44
Writing library : libebml v1.3.0 + libmatroska v1.4.1

Video
ID : 1
Format : AVC
Format/Info : Advanced Video Codec
Format profile : High@L3.1
Format settings : CABAC / 5 Ref Frames
Format settings, CABAC : Yes
Format settings, ReFrames : 5 frames
Codec ID : V_MPEG4/ISO/AVC
Duration : 1 h 35 min
Bit rate mode : Variable
Bit rate : 3 043 kb/s
Maximum bit rate : 4 500 kb/s
Width : 1 280 pixels
Height : 720 pixels
Display aspect ratio : 16:9
Frame rate mode : Constant
Frame rate : 23.976 (24000/1001) FPS
Color space : YUV
Chroma subsampling : 4:2:0
Bit depth : 8 bits
Scan type : Progressive
Bits/(Pixel*Frame) : 0.138
Stream size : 2.03 GiB (77%)
Default : Yes
Forced : No
Color range : Limited
Color primaries : BT.709
Transfer characteristics : BT.709
Matrix coefficients : BT.709

Audio #1
ID : 2
Format : AC-3
Format/Info : Audio Coding 3
Codec ID : A_AC3
Duration : 1 h 35 min
Bit rate mode : Constant
Bit rate : 192 kb/s
Channel(s) : 2 channels
Channel positions : Front: L R
Sampling rate : 48.0 kHz
Frame rate : 31.250 FPS (1536 SPF)
Bit depth : 16 bits
Compression mode : Lossy
Stream size : 131 MiB (5%)
Language : Russian
Service kind : Complete Main
Default : No
Forced : No

Audio #2
ID : 3
Format : E-AC-3
Format/Info : Enhanced Audio Coding 3
Codec ID : A_EAC3
Duration : 1 h 35 min
Bit rate mode : Constant
Bit rate : 640 kb/s
Channel(s) : 6 channels
Channel positions : Front: L C R, Side: L R, LFE
Sampling rate : 48.0 kHz
Frame rate : 187.500 FPS (256 SPF)
Compression mode : Lossy
Stream size : 438 MiB (16%)
Language : English
Service kind : Complete Main
Default : Yes
Forced : No

Text
ID : 4
Format : UTF-8
Codec ID : S_TEXT/UTF8
Codec ID/Info : UTF-8 Plain Text
Title : SDH
Language : English
Default : No
Forced : No
скриншот  скриншот  скриншот  
pb.wtf



Скачать Перец-таймс через торрент https://i6.imageban.ru/out/2019/06/25/fcd1737ffba3ec89b03cbfe7c351b45b.jpg Скачать фильм Перец-таймс через торрент бесплантно в хорошем качестве Описание:Капитан Фред Робертс обнаружил пишущую машинку в руинах города Ипр, Бельгия в 1916 году. Сразу ему в голову пришла идея печатать ... 10 10 1
Торрент: Зарегистрирован [2019-06-26 15:33] · скачан: 38 раз
Статус: √ проверено
Размер: 2.64 GB
Как cкачать? Как скачать Перец-таймс через торрент | qTorrent

% Раздел Тема Автор DL S | L
Фильмы 2013 [DVDrip, WEB-DLRip, HDrip] [ 1.46 GB ] Перец-таймс / Время дворников / Вайпер таймс / The Wipers Times [2013 военный WEB-DLRip] [MVO] killermax2013 Скачать
1 | 0

28-11-2019 20:33  

Отключить всю рекламу на сайте

    Дорогой пользователь! Огромная просьба, поблагодарите релизера, оцените раздачу и оставьте свои комментарий, если Вы скачали Перец-таймс через торрент бесплатно! Внесите свою лепту в развитие PiratBit!
    Комментировать посты могут только пользователи прошедшие не сложную регистрацию
    Показать сообщения:    

    Перец-таймс через торрент
    Скачать бесплатно Перец-таймс
    Перец-таймс скачать торрент
    Перец-таймс смотреть онлайн
    Cкачать фильм Перец-таймс бесплатно
    Перец-таймс скачать торрент в хорошем качестве
    Перец-таймс смотреть онлайн бесплатно в хорошем качестве


    Вы не можете начинать темы
    Вы не можете отвечать на сообщения
    Вы не можете редактировать свои сообщения
    Вы не можете удалять свои сообщения
    Вы не можете голосовать в опросах
    Вы не можете прикреплять файлы к сообщениям
    Вы можете скачивать файлы