Мега распродажа FORZA HORIZON 4 ULTIMATE+ВСЕ DLC+ОНЛАЙН всего за 499р. 349 руб. (супер цена). Внимание количество ограничено!!!

iTunes

1+1

iTunes

мы

iTunes

1

1 сезон

Чернобыль

1 сезон

Ральф против интернета

Лицензия

ПШазам

8 сезон

Игра престолов

Лицензия

30
pack

ВАЖНО

!!Акция!!

Alien_RageХит недели

RePack

Resident Evil 21

ИГРА 18+

pack

RePack

Metro:Exodus

!!Акция!!

Alien_Rage

RePack

fifa19

RePack

Assassins Creed: Odyssey

RePack

NEED FOR SPEED™ PAYBACK

3 сезон

9 сезон

Бесстыжие 9 сезон

Все сериалы

все сериалы на PB.wtf

RePack

FAR CRY 5
Ребята, катастрофически не хватает 2730р. для оплаты серверов за ИЮНЬ (всвязи с блокировками трафик упал в 3 раза), 1-2р., выручайте.
  

Тайны Фрэнки Дрейк / Frankie Drake Mysteries / Сезон: 2 / Серии: 1-10 из 10 (Руба Надда, Садс Сазерленд, Питер Стеббингс) [2018, Драма, Криминал, Детектив, BDRip 1080p] [MVO] (VIP Serial HD) pb.wtf

Тайны Фрэнки Дрейк через торрент pb.wtf

Размер: 33.36 GB | Добавлен: 20 д. назад | Торрент скачан:1 раз
Скачать  

26-06-2019 17:07 Тайны Фрэнки Дрейк Скачать торрент  

Тайны Фрэнки Дрейк / Загадки Фрэнки Дрэйк / Расследования Фрэнки Дрейк / Frankie Drake Mysteries
Год выпуска: 2018
Страна: Канада
Жанр: Драма, криминал, детектив
Продолжительность: ~00:43:40
Перевод: Профессиональный (многоголосый закадровый) | VIP Serial HD
Субтитры: Английские
Реклама: Отсутствует
Режиссёр: Руба Надда, Садс Сазерленд, Питер Стеббингс…
В ролях: Лорен Ли Смит, Шантель Райли, Ребекка Лиддьярд, Шаррон Мэтьюз, Энтони Лемке, Грэйс Линн Кунг, Венди Крюсон, Ромэйн Вейт, Карен Робинсон, Стив Ланд, Натали Браун …
Описание: Сериал расскажет о Фрэнки Дрейк — первой в городе женщине, ставшей частным детективом, действующей в канадском городе Торонто в 20-е годы прошлого века. Фрэнки, обладая всеми качествами, присущими хорошему детективу, вместе со своей помощницей Труди берётся за расследование самых сложных и запутанных дел — даже таких, где, казалось бы, нет никаких улик..
Качество: BDRip 1080p
Контейнер: MKV
Видео: 1920x1080, 23.976 fps, MPEG-4 AVC, ~9900 kbps
Аудио Rus: AC3, 48.0 kHz, 2ch, 192 kbps | VIP Serial HD
Аудио Eng: DTS, 48.0 kHz, 3/2 (L,C,R,l,r) + LFE ch, 768 kbps
Формат субтитров: softsub (SRT)



Картинка от комрада BEDLAM

    01. The Old Switcheroo
    02. The Last Dance
    03. Radio Daze
    04. Emancipation Day
    05. Dressed to Kill
    06. Extra Innings
    07. Shades of Greyson
    08. Diamonds Are a Gal's Best Friend
    09. Dealer's Choice
    10. Now You See Her

Общее
Уникальный идентификатор : 48491193719190306479242339848983727773 (0x247B106F8FA35DB05B2797AEAAF4CE9D)
Полное имя : F:\Frankie.Drake.Mysteries.S02.1080p.BDRip.x264.Rus.Eng-@EniaHD\Frankie.Drake.Mysteries.S02E10.1080p.BDRip.x264.Rus.Eng-@EniaHD.mkv
Формат : Matroska
Версия формата : Version 4
Размер файла : 3,34 Гбайт
Продолжительность : 43 м. 40 с.
Общий поток : 10,9 Мбит/сек
Название фильма : Frankie.Drake.Mysteries.S02E10.1080p.BluRay.x264-BEDLAM-ParovozN@EniaHD
Дата кодирования : UTC 2019-06-14 23:48:16
Программа кодирования : mkvmerge v32.0.0 ('Astral Progressions') 32-bit
Библиотека кодирования : libebml v1.3.7 + libmatroska v1.5.0

Видео
Идентификатор : 1
Формат : AVC
Формат/Информация : Advanced Video Codec
Профиль формата : High@L4.1
Настройки формата : CABAC / 4 Ref Frames
Параметр CABAC формата : Да
Параметр RefFrames формата : 4 кадра
Идентификатор кодека : V_MPEG4/ISO/AVC
Продолжительность : 43 м. 40 с.
Битрейт : 9970 Кбит/сек
Ширина : 1920 пикселей
Высота : 1080 пикселей
Соотношение сторон : 16:9
Режим частоты кадров : Постоянный
Частота кадров : 23,976 (24000/1001) кадра/сек
Цветовое пространство : YUV
Субдискретизация насыщенности : 4:2:0
Битовая глубина : 8 бит
Тип развёртки : Прогрессивная
Бит/(Пиксели*Кадры) : 0.201
Размер потока : 3,04 Гбайт (91%)
Библиотека кодирования : x264 core 157 r2970 5493be8
Настройки программы : cabac=1 / ref=4 / deblock=1:-3:-3 / analyse=0x3:0x113 / me=umh / subme=8 / psy=1 / psy_rd=1.00:0.00 / mixed_ref=1 / me_range=32 / chroma_me=1 / trellis=1 / 8x8dct=1 / cqm=0 / deadzone=21,11 / fast_pskip=1 / chroma_qp_offset=-2 / threads=18 / lookahead_threads=3 / sliced_threads=0 / nr=0 / decimate=1 / interlaced=0 / bluray_compat=0 / constrained_intra=0 / bframes=3 / b_pyramid=2 / b_adapt=2 / b_bias=0 / direct=3 / weightb=1 / open_gop=0 / weightp=2 / keyint=240 / keyint_min=24 / scenecut=40 / intra_refresh=0 / rc_lookahead=50 / rc=2pass / mbtree=1 / bitrate=9970 / ratetol=1.0 / qcomp=0.60 / qpmin=0 / qpmax=69 / qpstep=4 / cplxblur=20.0 / qblur=0.5 / ip_ratio=1.40 / aq=3:0.80
Default : Да
Forced : Нет

Аудио #1
Идентификатор : 2
Формат : AC-3
Формат/Информация : Audio Coding 3
Коммерческое название : Dolby Digital
Идентификатор кодека : A_AC3
Продолжительность : 43 м. 40 с.
Вид битрейта : Постоянный
Битрейт : 192 Кбит/сек
Каналы : 2 канала
Channel layout : L R
Частота : 48,0 КГц
Частота кадров : 31,250 кадров/сек (1536 SPF)
Битовая глубина : 16 бит
Метод сжатия : С потерями
Размер потока : 60,0 Мбайт (2%)
Заголовок : MVO (ViP Serial)
Язык : Russian
ServiceKind/String : Complete Main
Default : Да
Forced : Нет

Аудио #2
Идентификатор : 3
Формат : DTS
Формат/Информация : Digital Theater Systems
Идентификатор кодека : A_DTS
Продолжительность : 43 м. 40 с.
Вид битрейта : Постоянный
Битрейт : 768 Кбит/сек
Каналы : 6 каналов
Channel layout : C L R Ls Rs LFE
Частота : 48,0 КГц
Частота кадров : 93,750 кадра/сек (512 SPF)
Битовая глубина : 24 бит
Метод сжатия : С потерями
Размер потока : 240 Мбайт (7%)
Язык : English
Default : Нет
Forced : Нет

Текст
Идентификатор : 4
Формат : UTF-8
Идентификатор кодека : S_TEXT/UTF8
Идентификатор кодека/Информация : UTF-8 Plain Text
Продолжительность : 43 м. 7 с.
Битрейт : 101 бит/сек
ElementCount : 923
Размер потока : 32,2 Кбайт (0%)
Язык : English
Default : Нет
Forced : Нет

Меню
00:00:00.000 : en:Chapter 01
00:10:58.491 : en:Chapter 02
00:22:27.638 : en:Chapter 03
00:33:00.312 : en:Chapter 04

скриншот  скриншот  скриншот  

pb.wtf



Скачать Тайны Фрэнки Дрейк через торрент https://funkyimg.com/i/2V2bq.jpg Скачать фильм Тайны Фрэнки Дрейк через торрент бесплантно в хорошем качестве Описание: Сериал расскажет о Фрэнки Дрейк — первой в городе женщине, ставшей частным детективом, действующей в канадском городе Торонто в ... 1 10 1
Торрент: Зарегистрирован [2019-06-26 17:07] · скачан: 1 раз
Статус: √ проверено
Размер: 33.36 GB
Как cкачать? Как скачать Тайны Фрэнки Дрейк через торрент | qTorrent

% Раздел Тема Автор DL S | L
Зарубежные сериалы [ 10.37 GB ] Тайны Фрэнки Дрейк / Frankie Drake Mysteries / Сезон: 2 / Серии 1-10 из 10 [2018 WEBRip 720p] [DVO] killermax2013 Скачать
1 | 0


>> Регистрируемся здесь <<






Отзывы и комментарии о схеме читаем и пишем здесь: ---> Отзывы и комментарии о схеме

Новые благодарочки в телеграм довольных пользователей:
скриншот   скриншот   скриншот   скриншот   скриншот
    Дорогой пользователь! Огромная просьба, поблагодарите релизера, оцените раздачу и оставьте свои комментарий, если Вы скачали Тайны Фрэнки Дрейк через торрент бесплатно! Внесите свою лепту в развитие PiratBit!
    Комментировать посты могут только пользователи прошедшие не сложную регистрацию
    Показать сообщения:    

    Тайны Фрэнки Дрейк через торрент
    Скачать бесплатно Тайны Фрэнки Дрейк
    Тайны Фрэнки Дрейк скачать торрент
    Тайны Фрэнки Дрейк смотреть онлайн
    Cкачать фильм Тайны Фрэнки Дрейк бесплатно
    Тайны Фрэнки Дрейк скачать торрент в хорошем качестве
    Тайны Фрэнки Дрейк смотреть онлайн бесплатно в хорошем качестве


    Вы не можете начинать темы
    Вы не можете отвечать на сообщения
    Вы не можете редактировать свои сообщения
    Вы не можете удалять свои сообщения
    Вы не можете голосовать в опросах
    Вы не можете прикреплять файлы к сообщениям
    Вы можете скачивать файлы