Ссылка на приватное зеркало нашего сайта всего за 1$. Внимание количество ограничено!!!

2 сезон

iTunes

1 сезон

1

2 сезон

2 сезон

iTunes

1 сезон

RePack

30

Новинка

ВАЖНО

ИГРА 18+

pack

RePack

MK11
pack

Забери бонус

RePack

jed

!!Акция!!

Alien_Rage

RePack

fifa19

RePack

Assassins Creed: Odyssey

RePack

NEED FOR SPEED™ PAYBACK

4 сезон

9 сезон

Бесстыжие 9 сезон

Все сериалы

все сериалы на PB.wtf

RePack

FAR CRY 5
  

Тайны Фрэнки Дрейк / Frankie Drake Mysteries / Сезон: 1 / Серии: 1-11 из 11 (Руба Надда, Садс Сазерленд, Питер Стеббингс) [2017-2018, Драма, Криминал, Детектив, BDRip 1080p] [MVO] (VIP Serial HD) pb.wtf

Тайны Фрэнки Дрейк через торрент pb.wtf

Размер: 36.69 GB | Добавлен: 1 год 5 мес. назад | Торрент скачан:6 раз
Скачать  

26-06-2019 17:17 Тайны Фрэнки Дрейк Скачать торрент  

Тайны Фрэнки Дрейк / Загадки Фрэнки Дрэйк / Расследования Фрэнки Дрейк / Frankie Drake Mysteries
Год выпуска: 2017-2018
Страна: Канада
Жанр: Драма, криминал, детектив
Продолжительность: ~00:43:40
Перевод: Профессиональный (многоголосый закадровый) | VIP Serial HD
Субтитры: Английские
Реклама: Отсутствует
Режиссёр: Руба Надда, Садс Сазерленд, Питер Стеббингс…
В ролях: Лорен Ли Смит, Шантель Райли, Ребекка Лиддьярд, Шаррон Мэтьюз, Энтони Лемке, Грэйс Линн Кунг, Венди Крюсон, Ромэйн Вейт, Карен Робинсон, Стив Ланд, Натали Браун …
Описание: Сериал расскажет о Фрэнки Дрейк — первой в городе женщине, ставшей частным детективом, действующей в канадском городе Торонто в 20-е годы прошлого века. Фрэнки, обладая всеми качествами, присущими хорошему детективу, вместе со своей помощницей Труди берётся за расследование самых сложных и запутанных дел — даже таких, где, казалось бы, нет никаких улик..
Качество: BDRip 1080p
Контейнер: MKV
Видео: 1920x1080, 23.976 fps, MPEG-4 AVC, ~9200 kbps
Аудио Rus: AC3, 48.0 kHz, 2ch, 192 kbps | VIP Serial HD
Аудио Eng: DTS, 48.0 kHz, 3/2 (L,C,R,l,r) + LFE ch, 1509 kbps
Формат субтитров: softsub (SRT)



Картинка от комрада SHORTBREHD

    01. Mother of Pearl
    02. Ladies in Red
    03. Summer in the City
    04. Healing Hands
    05. Out of Focus
    06. Whisper Sisters
    07. Ties that Bind
    08. The Pilot
    09. Ghosts
    10. Anastasia
    11. Once Burnt Twice Spied

Общее
Уникальный идентификатор : 131691383912676817828424483382039647294 (0x6312D6852BABF1CFB0BFA20B5797943E)
Полное имя : F:\Frankie.Drake.Mysteries.S01.1080p.BDRip.x264.Rus.Eng-@EniaHD\Frankie.Drake.Mysteries.S01E10.1080p.BDRip.x264.Rus.Eng-@EniaHD.mkv
Формат : Matroska
Версия формата : Version 4
Размер файла : 3,34 Гбайт
Продолжительность : 43 м. 40 с.
Общий поток : 10,9 Мбит/сек
Название фильма : Frankie.Drake.Mysteries.S01E10.1080p.BluRay.x264-SHORTBREHD-ParovozN@EniaHD
Дата кодирования : UTC 2019-06-15 00:15:42
Программа кодирования : mkvmerge v32.0.0 ('Astral Progressions') 32-bit
Библиотека кодирования : libebml v1.3.7 + libmatroska v1.5.0

Видео
Идентификатор : 1
Формат : AVC
Формат/Информация : Advanced Video Codec
Профиль формата : High@L4.1
Настройки формата : CABAC / 4 Ref Frames
Параметр CABAC формата : Да
Параметр RefFrames формата : 4 кадра
Идентификатор кодека : V_MPEG4/ISO/AVC
Продолжительность : 43 м. 40 с.
Битрейт : 9228 Кбит/сек
Ширина : 1920 пикселей
Высота : 1080 пикселей
Соотношение сторон : 16:9
Режим частоты кадров : Постоянный
Частота кадров : 23,976 (24000/1001) кадра/сек
Цветовое пространство : YUV
Субдискретизация насыщенности : 4:2:0
Битовая глубина : 8 бит
Тип развёртки : Прогрессивная
Бит/(Пиксели*Кадры) : 0.186
Размер потока : 2,82 Гбайт (84%)
Библиотека кодирования : x264 core 155 r2901 7d0ff22
Настройки программы : cabac=1 / ref=4 / deblock=1:-3:-3 / analyse=0x3:0x113 / me=umh / subme=8 / psy=1 / psy_rd=1.00:0.00 / mixed_ref=1 / me_range=16 / chroma_me=1 / trellis=1 / 8x8dct=1 / cqm=0 / deadzone=21,11 / fast_pskip=1 / chroma_qp_offset=-2 / threads=24 / lookahead_threads=4 / sliced_threads=0 / nr=0 / decimate=1 / interlaced=0 / bluray_compat=0 / constrained_intra=0 / bframes=3 / b_pyramid=2 / b_adapt=2 / b_bias=0 / direct=3 / weightb=1 / open_gop=0 / weightp=2 / keyint=240 / keyint_min=24 / scenecut=40 / intra_refresh=0 / rc_lookahead=50 / rc=2pass / mbtree=1 / bitrate=9228 / ratetol=1.0 / qcomp=0.60 / qpmin=0 / qpmax=69 / qpstep=4 / cplxblur=20.0 / qblur=0.5 / ip_ratio=1.40 / aq=3:0.80
Default : Да
Forced : Нет

Аудио #1
Идентификатор : 2
Формат : AC-3
Формат/Информация : Audio Coding 3
Коммерческое название : Dolby Digital
Идентификатор кодека : A_AC3
Продолжительность : 43 м. 40 с.
Вид битрейта : Постоянный
Битрейт : 192 Кбит/сек
Каналы : 2 канала
Channel layout : L R
Частота : 48,0 КГц
Частота кадров : 31,250 кадров/сек (1536 SPF)
Битовая глубина : 16 бит
Метод сжатия : С потерями
Размер потока : 60,0 Мбайт (2%)
Заголовок : MVO (ViP Serial)
Язык : Russian
ServiceKind/String : Complete Main
Default : Да
Forced : Нет

Аудио #2
Идентификатор : 3
Формат : DTS
Формат/Информация : Digital Theater Systems
Идентификатор кодека : A_DTS
Продолжительность : 43 м. 40 с.
Вид битрейта : Постоянный
Битрейт : 1509 Кбит/сек
Каналы : 6 каналов
Channel layout : C L R Ls Rs LFE
Частота : 48,0 КГц
Частота кадров : 93,750 кадра/сек (512 SPF)
Битовая глубина : 24 бит
Метод сжатия : С потерями
Размер потока : 471 Мбайт (14%)
Язык : English
Default : Нет
Forced : Нет

Текст
Идентификатор : 4
Формат : UTF-8
Идентификатор кодека : S_TEXT/UTF8
Идентификатор кодека/Информация : UTF-8 Plain Text
Продолжительность : 43 м. 3 с.
Битрейт : 97 бит/сек
ElementCount : 880
Размер потока : 30,7 Кбайт (0%)
Язык : English
Default : Нет
Forced : Нет

Меню
00:00:00.000 : en:00:00:00.000
00:09:41.039 : en:00:09:41.039
00:20:37.987 : en:00:20:37.987
00:31:43.568 : en:00:31:43.568

скриншот  скриншот  скриншот  

pb.wtf



Скачать Тайны Фрэнки Дрейк через торрент https://funkyimg.com/i/2V25n.jpg Скачать фильм Тайны Фрэнки Дрейк через торрент бесплантно в хорошем качестве Описание: Сериал расскажет о Фрэнки Дрейк — первой в городе женщине, ставшей частным детективом, действующей в канадском городе Торонто в ... 5 10 1
Торрент: Зарегистрирован [2019-06-26 17:17] · скачан: 6 раз
Статус: √ проверено
Размер: 36.69 GB
Как cкачать? Как скачать Тайны Фрэнки Дрейк через торрент | qTorrent

% Раздел Тема Автор DL S | L
Зарубежные сериалы [ 5.93 GB ] Загадки Фрэнки Дрэйк / Тайны Фрэнки Дрейк / Расследования Фрэнки Дрейк / Frankie Drake Mysteries / Сезон: 1 / Серии: 1-11 из 11 [2017 HDRip] [MVO] killermax2013 Скачать
1 | 0

28-11-2019 20:33  

Отключить всю рекламу на сайте

    Дорогой пользователь! Огромная просьба, поблагодарите релизера, оцените раздачу и оставьте свои комментарий, если Вы скачали Тайны Фрэнки Дрейк через торрент бесплатно! Внесите свою лепту в развитие PiratBit!
    Комментировать посты могут только пользователи прошедшие не сложную регистрацию
    Показать сообщения:    

    Тайны Фрэнки Дрейк через торрент
    Скачать бесплатно Тайны Фрэнки Дрейк
    Тайны Фрэнки Дрейк скачать торрент
    Тайны Фрэнки Дрейк смотреть онлайн
    Cкачать фильм Тайны Фрэнки Дрейк бесплатно
    Тайны Фрэнки Дрейк скачать торрент в хорошем качестве
    Тайны Фрэнки Дрейк смотреть онлайн бесплатно в хорошем качестве


    Вы не можете начинать темы
    Вы не можете отвечать на сообщения
    Вы не можете редактировать свои сообщения
    Вы не можете удалять свои сообщения
    Вы не можете голосовать в опросах
    Вы не можете прикреплять файлы к сообщениям
    Вы можете скачивать файлы