Ссылка на приватное зеркало нашего сайта всего за 1$. Внимание количество ограничено!!!

2 сезон

iTunes

1 сезон

1

2 сезон

2 сезон

iTunes

1 сезон

RePack

30

Ultimate

ВАЖНО

ИГРА 18+

pack

RePack

MK11
pack

Забери бонус

RePack

jed

!!Акция!!

Alien_Rage

RePack

fifa19

RePack

Assassins Creed: Odyssey

RePack

NEED FOR SPEED™ PAYBACK

4 сезон

9 сезон

Бесстыжие 9 сезон

Все сериалы

все сериалы на PB.wtf

RePack

FAR CRY 5
  

Город на холме / City on a Hill / Сезон: 1 / Серия: 1-10 из 10 (Эдвард Бьянчи, Майкл Куэста, Гэвин О’Коннор) [2019, Триллер, драма, криминал, WEB-DL 1080p] [MVO] (TVShows) pb.wtf

Город на холме через торрент pb.wtf

Размер: 41.37 GB | Добавлен: 1 год 3 мес. назад | Торрент скачан:0 раз
Скачать  

27-06-2019 07:47 Город на холме Скачать торрент  

Город на холме | City on a Hill
Год выпуска: 2019
Страна: США
Жанр: Триллер, драма, криминал
Продолжительность: ~ 01:00:00
Перевод: Профессиональный (многоголосый закадровый) | TVShows
Режиссёр: Эдвард Бьянчи, Майкл Куэста, Гэвин О’Коннор
В ролях: Кевин Бэйкон, Элдис Ходж, Джонатан Такер, Марк О'Брайэн, Лорен Е. Бэнкс, Джилл Хеннесси, Джир Ши, Аманда Клэйтон, Кевин Чэпмен, Нора Мерфи и др.
Описание: Действие разворачивается в начале 1990-х в Бостоне, погрязшем в преступности, коррупции и расизме. Однажды в городе появляется новый чернокожий окружной прокурор из Бруклина, Декорси Уорд, который намерен во что бы то ни стало изменить существующие порядки. Герой вынужден заключить сомнительный союз с коррумпированным, но уважаемым ветераном ФБР Джеки Роудсом. Уорд надеется с его помощью выйти на след опасной банды налётчиков на инкассаторов. Вскоре их сотрудничество навсегда меняет систему уголовного правосудия в Бостоне.


Качество: WEB-DL 1080p
Формат: MKV
Видео: AVC, 1920х1080, ~10000 Kbps, 23.976 fps
Аудио №1: AC3, 48,0 kHz, 6 ch, 384 kbps | TVShows
Аудио №2: AC3, 48,0 kHz, 6 ch, 640 kbps | Original
Субтитры: Английские (SDH)

Реклама: Отсутствует
01. The Night Flynn Sent the Cops on the Ice
General
Unique ID : 55917098370827968842504683296216543062 (0x2A113DCD69096296A9B9B47BF9F76F56)
Complete name : C:\Users\Desktop\City.on.a.Hill.S01.1080p.TVShows\City.on.a.Hill.S01E01.1080p.TVShows.mkv
Format : Matroska
Format version : Version 4 / Version 2
File size : 4.65 GiB
Duration : 1 h 2 min
Overall bit rate : 10.6 Mb/s
Encoded date : UTC 2019-06-20 07:22:24
Writing application : mkvmerge v33.1.0 ('Primrose') 64-bit
Writing library : libebml v1.3.7 + libmatroska v1.5.0

Video
ID : 1
Format : AVC
Format/Info : Advanced Video Codec
Format profile : High@L4
Format settings : CABAC / 4 Ref Frames
Format settings, CABAC : Yes
Format settings, ReFrames : 4 frames
Codec ID : V_MPEG4/ISO/AVC
Duration : 1 h 2 min
Bit rate mode : Constant
Bit rate : 10 000 kb/s
Width : 1 920 pixels
Height : 1 080 pixels
Display aspect ratio : 16:9
Frame rate mode : Constant
Frame rate : 23.976 (24000/1001) FPS
Color space : YUV
Chroma subsampling : 4:2:0
Bit depth : 8 bits
Scan type : Progressive
Bits/(Pixel*Frame) : 0.201
Stream size : 4.20 GiB (90%)
Default : Yes
Forced : No
Color range : Limited
Color primaries : BT.709
Transfer characteristics : BT.709
Matrix coefficients : BT.709

Audio #1
ID : 2
Format : AC-3
Format/Info : Audio Coding 3
Codec ID : A_AC3
Duration : 1 h 2 min
Bit rate mode : Constant
Bit rate : 384 kb/s
Channel(s) : 6 channels
Channel positions : Front: L C R, Side: L R, LFE
Sampling rate : 48.0 kHz
Frame rate : 31.250 FPS (1536 SPF)
Bit depth : 16 bits
Compression mode : Lossy
Stream size : 172 MiB (4%)
Title : TVShows
Language : Russian
Service kind : Complete Main
Default : Yes
Forced : Yes

Audio #2
ID : 3
Format : E-AC-3
Format/Info : Enhanced Audio Coding 3
Codec ID : A_EAC3
Duration : 1 h 2 min
Bit rate mode : Constant
Bit rate : 640 kb/s
Channel(s) : 6 channels
Channel positions : Front: L C R, Side: L R, LFE
Sampling rate : 48.0 kHz
Frame rate : 187.500 FPS (256 SPF)
Compression mode : Lossy
Delay relative to video : 18 ms
Stream size : 287 MiB (6%)
Title : Original
Language : English
Service kind : Complete Main
Default : No
Forced : No

Text
ID : 4
Format : UTF-8
Codec ID : S_TEXT/UTF8
Codec ID/Info : UTF-8 Plain Text
Duration : 1 h 0 min
Bit rate : 75 b/s
Count of elements : 1162
Stream size : 33.6 KiB (0%)
Title : English
Language : English
Default : No
Forced : No
При каждом добавлении создаётся новый торрент. Чтобы начать докачку новой серии, пользователям необходимо сделать следующее:
- остановить скачивание;
- удалить старый торрент у себя из клиента (старые серии удалять не надо);
- скачать новый торрент и запустить его у себя в клиенте вместо старого, при этом указать клиенту путь в старую папку, куда и должно происходить скачивание новых серий.
скриншот  скриншот  скриншот  
pb.wtf
Kkillermax2013 писал(а):

Сериал продлен на 2 сезон



Скачать Город на холме через торрент https://d.radikal.ru/d31/1906/86/eb4fde0e94b7.png Скачать фильм Город на холме через торрент бесплантно в хорошем качестве Описание: Действие разворачивается в начале 1990-х в Бостоне, погрязшем в преступности, коррупции и расизме. Однажды в городе появляется ... 10 10 3
Торрент: Зарегистрирован [2019-08-22 08:23] · скачан: 0 раз
Статус: √ проверено
Размер: 41.37 GB
Как cкачать? Как скачать Город на холме через торрент | qTorrent

% Раздел Тема Автор DL S | L
Зарубежные сериалы [ 11.14 GB ] Город на холме / City on a Hill / Сезон: 1 / Серии: 1-10 из 10 [2019 WEB-DLRip] [MVO] killermax2013 Скачать
1 | 0
Зарубежные сериалы [ 42.21 GB ] Город на холме / City on a Hill / Сезон: 1 / Серии: 1-10 из 10 [2019 WEB-DL 1080p] MVO [Lostfilm] bober100 Скачать
1 | 0
Зарубежные сериалы [ 25.48 GB ] Город на холме / City on a Hill / Сезон: 1 / Серия: 1-10 из 10 [2019 WEB-DL 720p] 3x[MVO] killermax2013 Скачать
1 | 0
Зарубежные сериалы [ 20.17 GB ] Город на холме / City on a Hill / Сезон: 1 / Серии: 1-10 из 10 [2019 WEB-DL 720p] MVO [TVShows] bober100 Скачать
1 | 0
T Зарубежные сериалы [ 8.73 GB ] Город на холме / City on a Hill / Сезон: 1 / Серии: 1-10 из 10 [2019 WEB-DLRip] MVO [IdeaFilm] bober100 Скачать
1 | 0
Зарубежные сериалы [ 20.21 GB ] Город на холме / City on a Hill / Сезон: 1 / Серии: 1-10 из 10 [2019 WEB-DL 720p] MVO [Amedia] bober100 Скачать
1 | 0
Зарубежные сериалы [ 42.61 GB ] Город на холме / City on a Hill / Сезон: 1 / Серии: 1-10 из 10 [2019 WEB-DL 1080p] MVO [Amedia] bober100 Скачать
1 | 0

28-11-2019 20:33  

Отключить всю рекламу на сайте

    Дорогой пользователь! Огромная просьба, поблагодарите релизера, оцените раздачу и оставьте свои комментарий, если Вы скачали Город на холме через торрент бесплатно! Внесите свою лепту в развитие PiratBit!
    Комментировать посты могут только пользователи прошедшие не сложную регистрацию
    Показать сообщения:    

    Город на холме через торрент
    Скачать бесплатно Город на холме
    Город на холме скачать торрент
    Город на холме смотреть онлайн
    Cкачать фильм Город на холме бесплатно
    Город на холме скачать торрент в хорошем качестве
    Город на холме смотреть онлайн бесплатно в хорошем качестве


    Вы не можете начинать темы
    Вы не можете отвечать на сообщения
    Вы не можете редактировать свои сообщения
    Вы не можете удалять свои сообщения
    Вы не можете голосовать в опросах
    Вы не можете прикреплять файлы к сообщениям
    Вы можете скачивать файлы