новый адрес
Ссылка на приватное зеркало всего за 1$. Внимание количество ограничено!!!

iTunes

1+1

iTunes

мы

WEB-DL

1

iTunes

Чернобыль

iTunes

Ральф против интернета

Лицензия

ПШазам

Лицензия

Оно 2

Лицензия

30
pack

Вам бонус

ВАЖНО

!!Акция!!

Alien_RageХит недели

RePack

Resident Evil 21

ИГРА 18+

pack

RePack

jed

!!Акция!!

Alien_Rage

RePack

fifa19

RePack

Assassins Creed: Odyssey

RePack

NEED FOR SPEED™ PAYBACK

3 сезон

9 сезон

Бесстыжие 9 сезон

Все сериалы

все сериалы на PB.wtf

RePack

FAR CRY 5
Ребята, катастрофически не хватает 1900р. для оплаты серверов за Октябрь (всвязи с блокировками трафик упал в 3 раза), 1-2р., выручайте.
  

Шазам! / Shazam! (Дэвид Ф. Сандберг / David F. Sandberg) [2019, фэнтези, боевик, комедия, BDRip-AVC] [Dub] pb.wtf

Шазам! через торрент pb.wtf

Раздают: 20 [ 0 KB/s ] Качают: 10 [ 0 KB/s ]
Размер: 744 MB | Добавлен: 5 мес. 9 д. назад | Торрент скачан:261 раз
Скачать  

27-06-2019 13:15 Шазам! Скачать торрент  

Шазам!
Shazam!

«Хочешь спасти мир? Скажи...»

Страна: США
Жанр: фэнтези, боевик, комедия, приключения
Год выпуска: 2019
Продолжительность: 02:11:43

Перевод: Профессиональный (полное дублирование) [Blu-ray CEE]
Субтитры: русские (форсированные, полные)
Оригинальная аудиодорожка: нет

Режиссер: Дэвид Ф. Сандберг / David F. Sandberg

В ролях: Закари Ливай, Эшер Энджел, Джек Дилан Грейзер, Марк Стронг, Грэйс Фултон, Адам Броди, Джимон Хонсу, Фэйти Херман, Миган Гуд, Мишель Борт, Йен Чен, Росс Батлер

Описание: В каждом из нас живет супергерой, нужна лишь толика магии, чтобы он проявил себя. Билли Бэтсон должен прокричать всего лишь одно слово — ШАЗАМ! — чтобы из сообразительного четырнадцатилетнего мальчишки превратиться во вполне себе взрослого супергероя Шазама, а все благодаря древнему волшебнику. В душе он остается ребенком, пусть и во взрослом могучем теле, поэтому поступает так, как поступил бы любой подросток, получивший сверхспособности, — оттягивается на полную катушку в этой подросшей версии себя самого! А умеет ли он летать? А есть ли у него рентгеновское зрение? Может ли он стрелять молниями из рук? А может ли пропустить контрольную по обществознанию? Шазам проверяет границы своих возможностей с бесшабашностью расшалившегося ребенка.
Но ему придется быстро обрести контроль над своими способностями, чтобы сразиться со смертоносными силами зла доктора Таддеуса Сиваны.



Релиз:

Автор рипа: stalkerok

Сэмпл

Качество видео: BDRip-AVC | Исходник: Shazam.2019.BDREMUX.1080p.seleZen
Формат видео: MKV
Видео кодек: AVC
Аудио кодек: AAC
Видео: AVC, 724 Кбит/сек, 726x304 (2.40:1), 23,976 кадр/сек
Аудио: AAC, 64 Кбит/сек, 48 КГц, 2.0 - русский
Навигация по главам: есть
---[Information] [27.06.2019 15:52:09] x264 [info]: frame I:1832 Avg QP:18.15 size: 34796
---[Information] [27.06.2019 15:52:09] x264 [info]: frame P:43270 Avg QP:22.20 size: 8256
---[Information] [27.06.2019 15:52:09] x264 [info]: frame B:144383 Avg QP:23.49 size: 2033

General
Unique ID : 290970920229517704628915080296036950214 (0xDAE6F5F8676A9B5A7D3BCDC4D88DE0C6)
Complete name : C:\temp\Shazam\Shazam.2019.BDRip.x264.Rus.stalkerok.New-Team..mkv
Format : Matroska
Format version : Version 4
File size : 744 MiB
Duration : 2 h 11 min
Overall bit rate : 789 kb/s
Movie name : Shazam! (2019) | Rip by stalkerok
Encoded date : UTC 2019-06-27 12:59:59
Writing application : mkvmerge v33.1.0 ('Primrose') 64-bit
Writing library : libebml v1.3.7 + libmatroska v1.5.0

Video
ID : 1
Format : AVC
Format/Info : Advanced Video Codec
Format profile : High@L4.1
Format settings : CABAC / 12 Ref Frames
Format settings, CABAC : Yes
Format settings, RefFrames : 12 frames
Codec ID : V_MPEG4/ISO/AVC
Duration : 2 h 11 min
Bit rate : 724 kb/s
Width : 726 pixels
Height : 304 pixels
Display aspect ratio : 2.40:1
Frame rate mode : Constant
Frame rate : 23.976 FPS
Color space : YUV
Chroma subsampling : 4:2:0
Bit depth : 8 bits
Scan type : Progressive
Bits/(Pixel*Frame) : 0.137
Stream size : 681 MiB (92%)
Title : Shazam! (2019) | Rip by stalkerok
Writing library : x264 core 157 r2969 d4099dd
Encoding settings : cabac=1 / ref=12 / deblock=1:-2:-1 / analyse=0x3:0x133 / me=umh / subme=10 / psy=1 / psy_rd=1.00:0.00 / mixed_ref=1 / me_range=32 / chroma_me=1 / trellis=2 / 8x8dct=1 / cqm=0 / deadzone=21,11 / fast_pskip=0 / chroma_qp_offset=-2 / threads=9 / lookahead_threads=2 / sliced_threads=0 / nr=0 / decimate=0 / interlaced=0 / bluray_compat=0 / constrained_intra=0 / bframes=15 / b_pyramid=2 / b_adapt=2 / b_bias=0 / direct=3 / weightb=1 / open_gop=0 / weightp=2 / keyint=240 / keyint_min=23 / scenecut=40 / intra_refresh=0 / rc_lookahead=60 / rc=2pass / mbtree=0 / bitrate=724 / ratetol=1.0 / qcomp=0.65 / qpmin=0 / qpmax=69 / qpstep=4 / cplxblur=20.0 / qblur=0.5 / vbv_maxrate=50000 / vbv_bufsize=62500 / nal_hrd=none / filler=0 / ip_ratio=1.40 / pb_ratio=1.30 / aq=3:0.95 / zones=179629,188686,q=36
Default : Yes
Forced : No

Audio
ID : 2
Format : AAC LC SBR PS
Format/Info : Advanced Audio Codec Low Complexity with Spectral Band Replication and Parametric Stereo
Commercial name : HE-AACv2
Format settings : NBC
Codec ID : A_AAC-2
Duration : 2 h 11 min
Bit rate : 64.0 kb/s
Channel(s) : 2 channels
Channel layout : ? ?
Sampling rate : 48.0 kHz
Frame rate : 23.438 FPS (2048 SPF)
Compression mode : Lossy
Delay relative to video : 31 ms
Stream size : 60.3 MiB (8%)
Language : Russian
Default : Yes
Forced : No

Text #1
ID : 3
Format : UTF-8
Codec ID : S_TEXT/UTF8
Codec ID/Info : UTF-8 Plain Text
Duration : 2 h 10 min
Bit rate : 2 b/s
Count of elements : 67
Stream size : 2.00 KiB (0%)
Title : forced
Language : Russian
Default : Yes
Forced : No

Text #2
ID : 4
Format : UTF-8
Codec ID : S_TEXT/UTF8
Codec ID/Info : UTF-8 Plain Text
Duration : 2 h 10 min
Bit rate : 65 b/s
Count of elements : 1756
Stream size : 62.9 KiB (0%)
Title : full
Language : Russian
Default : No
Forced : No

Menu
00:00:00.000 : en:Chapter 01
00:08:18.790 : en:Chapter 02
00:15:11.285 : en:Chapter 03
00:25:22.396 : en:Chapter 04
00:31:57.624 : en:Chapter 05
00:39:00.255 : en:Chapter 06
00:50:07.713 : en:Chapter 07
01:01:28.810 : en:Chapter 08
01:08:51.502 : en:Chapter 09
01:16:40.471 : en:Chapter 10
01:24:29.356 : en:Chapter 11
01:34:00.677 : en:Chapter 12
01:43:01.175 : en:Chapter 13
01:52:53.850 : en:Chapter 14
02:00:44.446 : en:Chapter 15
pb.wtf



Скачать Шазам! через торрент http://i6.imageban.ru/out/2017/09/18/2ff75c0c358795c5946784cc1680714d.png Скачать фильм Шазам! через торрент бесплантно в хорошем качестве Описание: В каждом из нас живет супергерой, нужна лишь толика магии, чтобы он проявил себя. Билли Бэтсон должен прокричать всего лишь одно ... 10 10 6
Info! Золотая раздача, скачанное не засчитывается.
Торрент: Зарегистрирован [2019-06-27 13:15] · скачан: 261 раз
Статус: √ проверено
Размер: 744 MB
Как cкачать? Как скачать Шазам! через торрент | qTorrent

% Раздел Тема Автор DL S | L
Фильмы с украинским озвучиванием [ 74.79 GB ] Шазам! / Shazam! [2019 UHD BDRemux 2160p] DUB [UKR / ] bober100 Скачать
1 | 0
Фильмы (Blu-ray, BD-Remux, HDDVD) [ 37.79 GB ] Шазам! / Shazam! [2019 Blu-ray EUR 1080p] [2D/3D] DUB [] bober100 Скачать
2 | 0
Фильмы 2019 [DVDrip, WEB-DLRip, HDrip] (DUB, MVO) [ 799 MB ] Шазам! / Shazam! [2019 BDRip] DUB [ Blu-Ray EUR] bober100 Скачать
4 | 0
3D Фильмы [ 22.79 GB ] Шазам! в 3Д / Shazam! 3D [2019 BDRip 1080p] OverUnder / Вертикальная стереопара serega768 Скачать
1 | 0
3D Фильмы [ 14.06 GB ] Шазам! 3Д / Shazam! 3D [2019 BDRip 1080p] [Half OverUnder / Вертикальная анаморфная стереопара] DUB [] bober100 Скачать
2 | 1
Фильмы [HD 720p, 1080p] (Хороший звук DUB, MVO) [ 5.97 GB ] Шазам! / Shazam! [2019 BDRip-HEVC 1080p ] DUB [] bober100 Скачать
12 | 0
Фильмы (Blu-ray, BD-Remux, HDDVD) [ 31.69 GB ] Шазам! / Shazam! [2019 BD Remux 1080p] [2D/3D] DUB [] bober100 Скачать
1 | 0

28-11-2019 20:33  

Отключить всю рекламу на сайте

    Дорогой пользователь! Огромная просьба, поблагодарите релизера, оцените раздачу и оставьте свои комментарий, если Вы скачали Шазам! через торрент бесплатно! Внесите свою лепту в развитие PiratBit!
    Комментировать посты могут только пользователи прошедшие не сложную регистрацию
    Показать сообщения:    

    Шазам! через торрент
    Скачать бесплатно Шазам!
    Шазам! скачать торрент
    Шазам! смотреть онлайн
    Cкачать фильм Шазам! бесплатно
    Шазам! скачать торрент в хорошем качестве
    Шазам! смотреть онлайн бесплатно в хорошем качестве


    Вы не можете начинать темы
    Вы не можете отвечать на сообщения
    Вы не можете редактировать свои сообщения
    Вы не можете удалять свои сообщения
    Вы не можете голосовать в опросах
    Вы не можете прикреплять файлы к сообщениям
    Вы можете скачивать файлы