новый адрес
Ссылка на приватное зеркало всего за 1$. Внимание количество ограничено!!!

iTunes

1+1

iTunes

мы

iTunes

1

iTunes

Чернобыль

iTunes

Ральф против интернета

Лицензия

ПШазам

Лицензия

Оно 2

Лицензия

30
pack

Вам бонус

ВАЖНО

!!Акция!!

Alien_RageХит недели

RePack

Resident Evil 21

ИГРА 18+

pack

RePack

jed

!!Акция!!

Alien_Rage

RePack

fifa19

RePack

Assassins Creed: Odyssey

RePack

NEED FOR SPEED™ PAYBACK

3 сезон

9 сезон

Бесстыжие 9 сезон

Все сериалы

все сериалы на PB.wtf

RePack

FAR CRY 5
Ребята, катастрофически не хватает 1900р. для оплаты серверов за Октябрь (всвязи с блокировками трафик упал в 3 раза), 1-2р., выручайте.
  

Дамбо / Dumbo (Тим Бёртон / Tim Burton) [2019, фэнтези, семейный, BDRip-AVC] [Dub] pb.wtf

Дамбо через торрент pb.wtf

Раздают: 33 [ 126 KB/s ]
Размер: 1.45 GB | Добавлен: 5 мес. 8 д. назад | Торрент скачан:236 раз
Скачать  

28-06-2019 06:53 Дамбо Скачать торрент  

Дамбо
Dumbo

«In 2019, a beloved tale will take you to new heights»

Страна: США
Жанр: фэнтези, семейный
Год выпуска: 2019
Продолжительность: 01:51:56

Перевод: Профессиональный (полное дублирование) [iTunes]
Субтитры: русские (форсированные, полные)
Оригинальная аудиодорожка: нет

Режиссер: Тим Бёртон / Tim Burton

В ролях: Колин Фаррелл, Майкл Китон, Дэнни ДеВито, Ева Грин, Алан Аркин, Нико Паркер, Finley Hobbins, Рошан Сет, Ларс Айдингер, Деобиа Опарей, Джозеф Гатт, Мигель Муньос Сегура

Описание: Цирковой импресарио Макс Медичи назначает бывшую звезду цирка Холта Фэрриера и его детей Милли и Джо опекунами новорожденного слонёнка, чьи невероятно большие уши сразу становятся предметом для постоянных шуток и насмешек коллег Холта по цеху. Внезапно узнав, что Дамбо умеет летать, владелец цирка решает нажиться на необычных способностях слонёнка. К делу подключается энергичный предприниматель В. А. Вэндевер, который решает сделать из малыша Дамбо главную звезду своего нового грандиозного развлекательного предприятия «Сказочная страна».



Релиз:

Автор рипа: stalkerok

Сэмпл

Качество видео: BDRip-AVC | Исходник: Dumbo.2019.BDREMUX.1080p.seleZen
Формат видео: MKV
Видео кодек: AVC
Аудио кодек: AC3
Видео: AVC, 1473 Кбит/сек, 936x506 (1.85:1), 23,976 кадр/сек
Аудио: AC3, 384 Кбит/сек, 48 КГц, 5.1 - русский
Навигация по главам: есть
---[Information] [28.06.2019 3:07:40] x264 [info]: frame I:1549 Avg QP:15.62 size: 58349
---[Information] [28.06.2019 3:07:40] x264 [info]: frame P:35449 Avg QP:20.06 size: 16782
---[Information] [28.06.2019 3:07:40] x264 [info]: frame B:124037 Avg QP:21.21 size: 4442

General
Unique ID : 131018533340168731643529959738541361918 (0x6291406CFBB80CEC6907D64434104AFE)
Complete name : C:\temp\Dumbo\Dumbo.2019.BDRip.x264.Rus.stalkerok.New-Team.mkv
Format : Matroska
Format version : Version 4
File size : 1.45 GiB
Duration : 1 h 51 min
Overall bit rate : 1 858 kb/s
Movie name : Dumbo (2019) | Rip by stalkerok
Encoded date : UTC 2019-06-28 06:31:25
Writing application : mkvmerge v33.1.0 ('Primrose') 64-bit
Writing library : libebml v1.3.7 + libmatroska v1.5.0

Video
ID : 1
Format : AVC
Format/Info : Advanced Video Codec
Format profile : High@L4.1
Format settings : CABAC / 12 Ref Frames
Format settings, CABAC : Yes
Format settings, RefFrames : 12 frames
Codec ID : V_MPEG4/ISO/AVC
Duration : 1 h 51 min
Bit rate : 1 473 kb/s
Width : 936 pixels
Height : 506 pixels
Display aspect ratio : 1.85:1
Frame rate mode : Constant
Frame rate : 23.976 FPS
Color space : YUV
Chroma subsampling : 4:2:0
Bit depth : 8 bits
Scan type : Progressive
Bits/(Pixel*Frame) : 0.130
Stream size : 1.15 GiB (79%)
Title : Dumbo (2019) | Rip by stalkerok
Writing library : x264 core 157 r2969 d4099dd
Encoding settings : cabac=1 / ref=12 / deblock=1:-3:-2 / analyse=0x3:0x133 / me=umh / subme=10 / psy=1 / psy_rd=1.00:0.00 / mixed_ref=1 / me_range=32 / chroma_me=1 / trellis=2 / 8x8dct=1 / cqm=0 / deadzone=21,11 / fast_pskip=0 / chroma_qp_offset=-2 / threads=12 / lookahead_threads=3 / sliced_threads=0 / nr=0 / decimate=0 / interlaced=0 / bluray_compat=0 / constrained_intra=0 / bframes=14 / b_pyramid=2 / b_adapt=2 / b_bias=0 / direct=3 / weightb=1 / open_gop=0 / weightp=2 / keyint=240 / keyint_min=23 / scenecut=40 / intra_refresh=0 / rc_lookahead=60 / rc=2pass / mbtree=0 / bitrate=1473 / ratetol=1.0 / qcomp=0.65 / qpmin=0 / qpmax=69 / qpstep=4 / cplxblur=20.0 / qblur=0.5 / vbv_maxrate=50000 / vbv_bufsize=62500 / nal_hrd=none / filler=0 / ip_ratio=1.40 / pb_ratio=1.30 / aq=3:0.80 / zones=149672,161034,q=34
Default : Yes
Forced : No

Audio
ID : 2
Format : AC-3
Format/Info : Audio Coding 3
Commercial name : Dolby Digital
Codec ID : A_AC3
Duration : 1 h 51 min
Bit rate mode : Constant
Bit rate : 384 kb/s
Channel(s) : 6 channels
Channel layout : L R C LFE Ls Rs
Sampling rate : 48.0 kHz
Frame rate : 31.250 FPS (1536 SPF)
Bit depth : 16 bits
Compression mode : Lossy
Stream size : 307 MiB (21%)
Language : Russian
Service kind : Complete Main
Default : Yes
Forced : No

Text #1
ID : 3
Format : UTF-8
Codec ID : S_TEXT/UTF8
Codec ID/Info : UTF-8 Plain Text
Duration : 1 h 41 min
Bit rate : 1 b/s
Count of elements : 17
Stream size : 838 Bytes (0%)
Title : Forced
Language : Russian
Default : Yes
Forced : No

Text #2
ID : 4
Format : UTF-8
Codec ID : S_TEXT/UTF8
Codec ID/Info : UTF-8 Plain Text
Duration : 1 h 51 min
Bit rate : 57 b/s
Count of elements : 1172
Stream size : 47.2 KiB (0%)
Title : Full
Language : Russian
Default : No
Forced : No

Menu
00:00:00.000 : en:Глава 01
00:02:49.461 : en:Глава 02
00:06:46.072 : en:Глава 03
00:11:23.766 : en:Глава 04
00:16:33.993 : en:Глава 05
00:19:20.493 : en:Глава 06
00:26:08.233 : en:Глава 07
00:27:46.331 : en:Глава 08
00:31:07.783 : en:Глава 09
00:35:09.024 : en:Глава 10
00:40:44.984 : en:Глава 11
00:46:44.927 : en:Глава 12
00:50:23.938 : en:Глава 13
00:57:15.265 : en:Глава 14
01:01:53.126 : en:Глава 15
01:07:18.785 : en:Глава 16
01:10:11.666 : en:Глава 17
01:14:47.858 : en:Глава 18
01:18:05.055 : en:Глава 19
01:27:55.896 : en:Глава 20
01:37:09.532 : en:Глава 21
01:39:41.100 : en:Глава 22
01:44:02.611 : en:Глава 23
pb.wtf



Скачать Дамбо через торрент http://i6.imageban.ru/out/2017/09/18/2ff75c0c358795c5946784cc1680714d.png Скачать фильм Дамбо через торрент бесплантно в хорошем качестве Описание: Цирковой импресарио Макс Медичи назначает бывшую звезду цирка Холта Фэрриера и его детей Милли и Джо опекунами новорожденного ... 9.9 10 9
Info! Золотая раздача, скачанное не засчитывается.
Торрент: Зарегистрирован [2019-06-28 06:53] · скачан: 236 раз
Статус: √ проверено
Размер: 1.45 GB
Как cкачать? Как скачать Дамбо через торрент | qTorrent

% Раздел Тема Автор DL S | L
Фильмы (Blu-ray, BD-Remux, HDDVD) [ 40.04 GB ] Дамбо / Dumbo [2019 BD Remux 1080p] [2D/3D] DUB [] bober100 Скачать
1 | 0
Фильмы [HD 720p, 1080p] (Хороший звук DUB, MVO) [ 11.65 GB ] Дамбо / Dumbo [2019 BDRip-HEVC 1080p ] DUB [] bober100 Скачать
3 | 0
Фильмы (HD 720p, 1080p) (48-60 fps) [ 4.77 GB ] Дамбо / Dumbo [2019 BDRip-HEVC 1080p 60fps Dub Original] Tiberiumsun69 Скачать
6 | 0
Фильмы 2019 [DVDrip, WEB-DLRip, HDrip] (DUB, MVO) [ 2.38 GB ] Дамбо / Dumbo [2019 BDRip-AVC] [] - ExKinoRay Enigma2010 Скачать
27 | 1
Ultra HD (UHD: 2K, 4K, 8K) — видео сверхвысокой чёткости [ 50.39 GB ] Дамбо / Dumbo [2019 UHD BDRemux 2160p] DUB [] bober100 Скачать
1 | 0
Фильмы (Blu-ray, BD-Remux, HDDVD) [ 28.09 GB ] Дамбо / Dumbo [2019 BD Remux 1080p] DUB [] bober100 Скачать
1 | 0
Фильмы 2019 [DVDrip, WEB-DLRip, HDrip] (DUB, MVO) [ 1.47 GB ] Дамбо / Dumbo [2019 BDRip] DUB [] bober100 Скачать
3 | 0

28-11-2019 20:33  

Отключить всю рекламу на сайте

    Дорогой пользователь! Огромная просьба, поблагодарите релизера, оцените раздачу и оставьте свои комментарий, если Вы скачали Дамбо через торрент бесплатно! Внесите свою лепту в развитие PiratBit!
    Комментировать посты могут только пользователи прошедшие не сложную регистрацию
    Показать сообщения:    

    Дамбо через торрент
    Скачать бесплатно Дамбо
    Дамбо скачать торрент
    Дамбо смотреть онлайн
    Cкачать фильм Дамбо бесплатно
    Дамбо скачать торрент в хорошем качестве
    Дамбо смотреть онлайн бесплатно в хорошем качестве


    Вы не можете начинать темы
    Вы не можете отвечать на сообщения
    Вы не можете редактировать свои сообщения
    Вы не можете удалять свои сообщения
    Вы не можете голосовать в опросах
    Вы не можете прикреплять файлы к сообщениям
    Вы можете скачивать файлы