Ссылка на приватное зеркало нашего сайта всего за 1$. Внимание количество ограничено!!!

2 сезон

iTunes

1 сезон

1

2 сезон

2 сезон

iTunes

1 сезон

RePack

30

Новинка

ВАЖНО

ИГРА 18+

pack

RePack

MK11
pack

Забери бонус

RePack

jed

!!Акция!!

Alien_Rage

RePack

fifa19

RePack

Assassins Creed: Odyssey

RePack

NEED FOR SPEED™ PAYBACK

4 сезон

9 сезон

Бесстыжие 9 сезон

Все сериалы

все сериалы на PB.wtf

RePack

FAR CRY 5
  

Шафт / Shaft (Тим Стори) [2019, боевик, комедия, криминал, WEB-DL 720p] Дубляж [Netflix] pb.wtf

Шафт через торрент pb.wtf

Размер: 2.95 GB | Добавлен: 1 год 4 мес. назад | Торрент скачан:484 раза
Скачать  

28-06-2019 17:22 Шафт Скачать торрент  

Шафт / Shaft««More Shaft than you can handle»»

Год выпуска: 2019
Страна: США
Жанр: боевик, комедия, криминал
Продолжительность: 01:51:59
Перевод: Дублированный | Netflix
Субтитры: Русские (полные), английские, французские
Режиссер: Тим Стори
В ролях:

Сэмюэл Л. Джексон (John Shaft), Джесси Ашер (JJ Shaft), Ричард Раундтри (John Shaft, Sr), Реджина Холл (Maya Babanikos), Александра Шипп (Sasha Arias), Мэтт Лауриа (Major Gary Cutworth), Титус Уэлливер (Special Agent Vietti), Метод Мэн (Freddy P), Исаак Де Банколе (Pierro «Gordito» Carrera), Эван Джогиа (Karim Hassan), Луна Лорен Велес (Bennie Rodriguez), Робби Джонс (Sergeant Keith Williams)
Описание:
Джон Шафт III - специалист по кибербезопасности в ФБР, не привыкший решать проблемы грубой силой. Он предпочитает полагаться на логику и расчёт, но убийство лучшего друга ставит его в тупик. С ним не разобраться современными методами, так что Джону ничего не остается, кроме как обратиться за помощью к старшему поколению Шафтов, чьи старые методы помогут ему найти убийцу.
Рейтинг:

MPAA: R - Лицам до 17 лет обязательно присутствие взрослого
Качество: WEB-DL 720p
Формат: MKV
Видео: MPEG-4 AVC, 2370 Кбит/с, 1280x720
Аудио №1: русский, E-AC3, 5.1 ch, 48 kHz, 640 kbps
Аудио №2: английский, E-AC3, 5.1 ch, 48 kHz, 768 kbps

General
Unique ID : 230392563695655335699138763981776106489 (0xAD53FE65A67AA04A3FC042C719CE33F9)
Complete name : D:\Video111\Shaft.2019.NF.WEB-DL.720p.seleZen.mkv
Format : Matroska
Format version : Version 4
File size : 2.95 GiB
Duration : 1 h 52 min
Overall bit rate mode : Variable
Overall bit rate : 3 765 kb/s
Movie name : Shaft 2019 from селезень
Encoded date : UTC 2019-06-28 15:52:50
Writing application : mkvmerge v35.0.0 ('All The Love In The World') 64-bit
Writing library : libebml v1.3.9 + libmatroska v1.5.2

Video
ID : 1
Format : AVC
Format/Info : Advanced Video Codec
Format profile : Main@L3.1
Format settings : CABAC / 3 Ref Frames
Format settings, CABAC : Yes
Format settings, Reference : 3 frames
Codec ID : V_MPEG4/ISO/AVC
Duration : 1 h 52 min
Bit rate mode : Variable
Bit rate : 2 370 kb/s
Maximum bit rate : 3 555 kb/s
Width : 1 280 pixels
Height : 720 pixels
Display aspect ratio : 16:9
Frame rate mode : Constant
Frame rate : 24.000 FPS
Color space : YUV
Chroma subsampling : 4:2:0
Bit depth : 8 bits
Scan type : Progressive
Bits/(Pixel*Frame) : 0.107
Stream size : 1.84 GiB (63%)
Writing library : x264 core 148 r2715 7e75228
Encoding settings : cabac=1 / ref=3 / deblock=1:0:0 / analyse=0x1:0x111 / me=umh / subme=10 / psy=1 / psy_rd=1.00:0.00 / mixed_ref=1 / me_range=24 / chroma_me=1 / trellis=2 / 8x8dct=0 / cqm=0 / deadzone=21,11 / fast_pskip=1 / chroma_qp_offset=-2 / threads=8 / lookahead_threads=1 / sliced_threads=0 / nr=0 / decimate=1 / interlaced=0 / bluray_compat=0 / stitchable=1 / constrained_intra=0 / bframes=2 / b_pyramid=0 / b_adapt=2 / b_bias=0 / direct=3 / weightb=1 / open_gop=0 / weightp=2 / keyint=48 / keyint_min=25 / scenecut=0 / intra_refresh=0 / rc_lookahead=48 / rc=2pass / mbtree=1 / bitrate=2370 / ratetol=1.0 / qcomp=0.50 / qpmin=6 / qpmax=51 / qpstep=4 / cplxblur=20.0 / qblur=0.5 / vbv_maxrate=3555 / vbv_bufsize=4740 / nal_hrd=vbr / filler=0 / ip_ratio=1.40 / aq=1:1.00
Language : English
Default : Yes
Forced : No

Audio #1
ID : 2
Format : E-AC-3
Format/Info : Enhanced AC-3
Commercial name : Dolby Digital Plus
Codec ID : A_EAC3
Duration : 1 h 51 min
Bit rate mode : Constant
Bit rate : 640 kb/s
Channel(s) : 6 channels
Channel layout : L R C LFE Ls Rs
Sampling rate : 48.0 kHz
Frame rate : 31.250 FPS (1536 SPF)
Compression mode : Lossy
Stream size : 513 MiB (17%)
Title : Dub
Language : Russian
Service kind : Complete Main
Default : Yes
Forced : Yes

Audio #2
ID : 3
Format : E-AC-3 JOC
Format/Info : Enhanced AC-3 with Joint Object Coding
Commercial name : Dolby Digital Plus with Dolby Atmos
Codec ID : A_EAC3
Duration : 1 h 52 min
Bit rate mode : Constant
Bit rate : 768 kb/s
Channel(s) : 6 channels
Channel layout : L R C LFE Ls Rs
Sampling rate : 48.0 kHz
Frame rate : 31.250 FPS (1536 SPF)
Compression mode : Lossy
Stream size : 615 MiB (20%)
Title : Original
Language : English
Service kind : Complete Main
Default : No
Forced : No
Complexity index : 16
Number of dynamic objects : 15
Bed channel count : 1 channel
Bed channel configuration : LFE

Text #1
ID : 4
Format : UTF-8
Codec ID : S_TEXT/UTF8
Codec ID/Info : UTF-8 Plain Text
Duration : 1 h 50 min
Bit rate : 119 b/s
Count of elements : 1990
Stream size : 96.9 KiB (0%)
Title : Full
Language : Russian
Default : No
Forced : No

Text #2
ID : 5
Format : UTF-8
Codec ID : S_TEXT/UTF8
Codec ID/Info : UTF-8 Plain Text
Duration : 1 h 50 min
Bit rate : 73 b/s
Count of elements : 1777
Stream size : 59.3 KiB (0%)
Title : Full
Language : French
Default : No
Forced : No

Text #3
ID : 6
Format : UTF-8
Codec ID : S_TEXT/UTF8
Codec ID/Info : UTF-8 Plain Text
Duration : 1 h 51 min
Bit rate : 89 b/s
Count of elements : 2210
Stream size : 73.2 KiB (0%)
Title : Full
Language : English
Default : No
Forced : No

Text #4
ID : 7
Format : UTF-8
Codec ID : S_TEXT/UTF8
Codec ID/Info : UTF-8 Plain Text
Duration : 1 h 51 min
Bit rate : 99 b/s
Count of elements : 2515
Stream size : 81.0 KiB (0%)
Title : SDH
Language : English
Default : No
Forced : No
pb.wtf



Скачать Шафт через торрент https://a.radikal.ru/a00/1906/79/fc4a6b3a04c7.png Скачать фильм Шафт через торрент бесплантно в хорошем качестве Описание: Джон Шафт III - специалист по кибербезопасности в ФБР, не привыкший решать проблемы грубой силой. Он предпочитает полагаться на ... 8.4 10 8
Info! Золотая раздача, скачанное не засчитывается.
Торрент: Зарегистрирован [2019-06-28 17:22] · скачан: 484 раз
Статус: √ проверено
Размер: 2.95 GB
Как cкачать? Как скачать Шафт через торрент | qTorrent

% Раздел Тема Автор DL S | L
Фильмы [HD 720p, 1080p] (Хороший звук DUB, MVO) [ 8.95 GB ] Шафт / Shaft [2019 BDRip 1080p] DUB [Netflix] bober100 Скачать
2 | 0
Фильмы (HD 720p, 1080p) (48-60 fps) [ 3.12 GB ] Шафт / Shaft [2000 BDRip 720p / 60 FPS ] от R.G. HD-Films slaventi-69 Скачать
3 | 0
Фильмы (HD 720p, 1080p) (48-60 fps) [ 3.11 GB ] Шафт / Shaft [2019 BDRip 720p / 60 FPS ] от R.G. HD-Films slaventi-69 Скачать
4 | 0
Фильмы 2019-2020 [DVDrip, WEB-DLRip, HDrip] (DUB, MVO) [ 1.46 GB ] Шафт / Shaft [2019 BDRip] - [NETFLiX] Twi7ter Скачать
16 | 0
Фильмы 2019-2020 [DVDrip, WEB-DLRip, HDrip] (DUB, MVO) [ 2.18 GB ] Шафт / Shaft [2019 BDRip] - [NETFLiX] AVO [Яроцкий] Twi7ter Скачать
7 | 0
Ultra HD (UHD: 2K, 4K, 8K) — видео сверхвысокой чёткости [ 16 GB ] Шафт / Shaft [2019 UHD BDRip 2160p] DUB [Netflix] + +AVO [Яроцкий ] bober100 Скачать
1 | 0
Ultra HD (UHD: 2K, 4K, 8K) — видео сверхвысокой чёткости [ 30.11 GB ] Шафт / Shaft [2019 UHD BDRip 2160p] [SDR] DUB [Netflix] + +AVO [Яроцкий ] bober100 Скачать
1 | 0

28-11-2019 20:33  

Отключить всю рекламу на сайте

    Дорогой пользователь! Огромная просьба, поблагодарите релизера, оцените раздачу и оставьте свои комментарий, если Вы скачали Шафт через торрент бесплатно! Внесите свою лепту в развитие PiratBit!
    Комментировать посты могут только пользователи прошедшие не сложную регистрацию
    Показать сообщения:    

    Шафт через торрент
    Скачать бесплатно Шафт
    Шафт скачать торрент
    Шафт смотреть онлайн
    Cкачать фильм Шафт бесплатно
    Шафт скачать торрент в хорошем качестве
    Шафт смотреть онлайн бесплатно в хорошем качестве


    Вы не можете начинать темы
    Вы не можете отвечать на сообщения
    Вы не можете редактировать свои сообщения
    Вы не можете удалять свои сообщения
    Вы не можете голосовать в опросах
    Вы не можете прикреплять файлы к сообщениям
    Вы можете скачивать файлы