Ссылка на приватное зеркало всего за 1$. Внимание количество ограничено!!!

OK

1+1

iTunes

мы

OK

1

WEB-DLRip

Джокер

Пифагор

Ведьмак / The Witcher сериал

Лицензия

ПШазам

ОК

Оно 2

iTunes

30
pack

Вам бонус

ВАЖНО

!!Акция!!

Alien_RageХит недели

RePack

Resident Evil 21

ИГРА 18+

pack

RePack

jed

!!Акция!!

Alien_Rage

RePack

fifa19

RePack

Assassins Creed: Odyssey

RePack

NEED FOR SPEED™ PAYBACK

4 сезон

9 сезон

Бесстыжие 9 сезон

Все сериалы

все сериалы на PB.wtf

RePack

FAR CRY 5
  

Город лжи / City of Lies (Брэд Фурман) [2018, триллер, драма, криминал, BDRemux 1080p] MVO [СВ Студия] pb.wtf

Город лжи через торрент pb.wtf

Размер: 22.87 GB | Добавлен: 6 мес. назад | Торрент скачан:43 раза
Скачать  

29-06-2019 04:35 Город лжи Скачать торрент  

Город лжи / City of Lies««Кто убил Бигги?»»

Год выпуска: 2018
Страна: Великобритания, США
Жанр: триллер, драма, криминал, детектив, биография
Продолжительность: 01:52:17
Перевод: Профессиональный многоголосый | СВ Студия
Субтитры: Отсутствуют
Режиссер: Брэд Фурман
В ролях:

Джонни Депп (Russell Poole), Форест Уитакер (Jack Jackson), Тоби Хасс (Detective Fred Miller), Дэйтон Калли (Lieutenant O'Shea), Нил Браун мл. (Rafael Perez), Луис Хертэм (City Attorney Stone), Шей Уигэм (Frank Lyga), Ксандер Беркли (Edwards), Мелани Бенц (Jessica), Шамир Андерсон (David Mack), Лоуренс Мэйсон (FBI Agent Dunton), Кристиан Джордж (Belsher)
Описание:
7 сентября 1996 года был смертельно ранен рэпер Тупак Шакур, через полгода был застрелен главный подозреваемый в его убийстве - хип-хоп-звезда Бигги Смолз. Преступники не были найдены, дело о «рэперской войне побережий» было закрыто. Спустя годы опальный детектив Рассел Пул возвращается к расследованию и вместе с репортером Джексоном распутывает паутину немыслимого заговора, в котором, очевидно, замешана полиция Лас-Вегаса.
Рейтинг:

MPAA: R - Лицам до 17 лет обязательно присутствие взрослого
Качество: BDRemux 1080p
Формат: MKV
Видео: MPEG-4 AVC, 24.9 Mбит/с, 1920x1080, 24.000 кадр/с
Аудио #1: Русский (АС3, 6ch, 448 Кбит/с, 48.0 KHz) Профессиональный (многоголосый, закадровый) СВ Студия
Аудио #2: Английский (DTS, 6ch, 1509 Кбит/с, 48.0 KHz)
Аудио #3: Английский (DTS-HD MA, 6ch, 2257 Кбит/с, 48.0 KHz)
Навигация по главам: есть
Примечание: Релиз без рекламы!

General
Unique ID : 249793885439277976729468680214064519521 (0xBBEC8D69617EC6FC875AB70EA355D961)
Complete name : City.of.Lies.2018.BluRay.REMUX.1080p.mkv
Format : Matroska
Format version : Version 4
File size : 22.9 GiB
Duration : 1 h 52 min
Overall bit rate mode : Variable
Overall bit rate : 29.2 Mb/s
Encoded date : UTC 2019-06-28 21:05:58
Writing application : mkvmerge v7.1.0 ('Good Love') 64bit built on Jul 27 2014 13:06:55
Writing library : libebml v1.3.0 + libmatroska v1.4.1

Video
ID : 1
Format : AVC
Format/Info : Advanced Video Codec
Format profile : High@L4.1
Format settings : CABAC / 2 Ref Frames
Format settings, CABAC : Yes
Format settings, Reference fra : 2 frames
Format settings, GOP : M=1, N=5
Codec ID : V_MPEG4/ISO/AVC
Duration : 1 h 52 min
Bit rate mode : Variable
Bit rate : 24.9 Mb/s
Maximum bit rate : 32.2 Mb/s
Width : 1 920 pixels
Height : 1 080 pixels
Display aspect ratio : 16:9
Frame rate mode : Constant
Frame rate : 24.000 FPS
Color space : YUV
Chroma subsampling : 4:2:0
Bit depth : 8 bits
Scan type : Progressive
Bits/(Pixel*Frame) : 0.501
Stream size : 19.6 GiB (86%)
Language : English
Default : Yes
Forced : No

Audio #1
ID : 2
Format : AC-3
Format/Info : Audio Coding 3
Commercial name : Dolby Digital
Codec ID : A_AC3
Duration : 1 h 52 min
Bit rate mode : Constant
Bit rate : 448 kb/s
Channel(s) : 6 channels
Channel layout : L R C LFE Ls Rs
Sampling rate : 48.0 kHz
Frame rate : 31.250 FPS (1536 SPF)
Bit depth : 16 bits
Compression mode : Lossy
Stream size : 360 MiB (2%)
Language : Russian
Service kind : Complete Main
Default : Yes
Forced : No

Audio #2
ID : 3
Format : DTS
Format/Info : Digital Theater Systems
Codec ID : A_DTS
Duration : 1 h 52 min
Bit rate mode : Constant
Bit rate : 1 509 kb/s
Channel(s) : 6 channels
Channel layout : C L R Ls Rs LFE
Sampling rate : 48.0 kHz
Frame rate : 93.750 FPS (512 SPF)
Bit depth : 24 bits
Compression mode : Lossy
Stream size : 1.18 GiB (5%)
Language : English
Default : No
Forced : No

Audio #3
ID : 4
Format : DTS XLL
Format/Info : Digital Theater Systems
Commercial name : DTS-HD Master Audio
Codec ID : A_DTS
Duration : 1 h 52 min
Bit rate mode : Variable
Bit rate : 2 257 kb/s
Channel(s) : 6 channels
Channel layout : C L R Ls Rs LFE
Sampling rate : 48.0 kHz
Frame rate : 93.750 FPS (512 SPF)
Bit depth : 24 bits
Compression mode : Lossless
Stream size : 1.77 GiB (8%)
Language : English
Default : No
Forced : No

Menu
00:00:00.000 : en:Chapter 01
00:05:23.000 : en:Chapter 02
00:10:00.708 : en:Chapter 03
00:16:00.500 : en:Chapter 04
00:22:14.125 : en:Chapter 05
00:27:25.875 : en:Chapter 06
00:33:04.791 : en:Chapter 07
00:38:14.541 : en:Chapter 08
00:43:31.000 : en:Chapter 09
00:49:31.458 : en:Chapter 10
00:55:02.750 : en:Chapter 11
01:00:54.083 : en:Chapter 12
01:07:41.000 : en:Chapter 13
01:12:40.458 : en:Chapter 14
01:17:49.208 : en:Chapter 15
01:21:38.291 : en:Chapter 16
01:27:33.250 : en:Chapter 17
01:32:15.916 : en:Chapter 18
01:38:06.666 : en:Chapter 19
01:43:18.625 : en:Chapter 20
pb.wtf



Скачать Город лжи через торрент https://b.radikal.ru/b32/1906/af/1085c55bae41.jpg Скачать фильм Город лжи через торрент бесплантно в хорошем качестве Описание: 7 сентября 1996 года был смертельно ранен рэпер Тупак Шакур, через полгода был застрелен главный подозреваемый в его убийстве - ... 10 10 3
Info! Золотая раздача, скачанное не засчитывается.
Торрент: Зарегистрирован [2019-06-29 04:35] · скачан: 43 раз
Статус: √ проверено
Размер: 22.87 GB
Как cкачать? Как скачать Город лжи через торрент | qTorrent

% Раздел Тема Автор DL S | L
Фильмы 2019-2020 [DVDrip, WEB-DLRip, HDrip] (DUB, MVO) [ 2.26 GB ] Город лжи / City of Lies [2019 биография BDRip-AVC] 2xMVO [СВ Студия HDRezka Studio] bober100 Скачать
3 | 0
Фильмы [HD 720p, 1080p] (Хороший звук DUB, MVO) [ 6.45 GB ] Город лжи / City of Lies [2019 биография BDRip 720p] MVO [СВ Студия] bober100 Скачать
4 | 0
Фильмы 2018 [DVDrip, WEB-DLRip, HDrip] (DUB, MVO) [ 745 MB ] Город лжи / City of Lies [2018 BDRip-AVC] MVO [СВ Студия] sokol_ok Скачать
12 | 3
Фильмы 2018 [DVDrip, WEB-DLRip, HDrip] (DUB, MVO) [ 2.18 GB ] Город лжи / City of Lies [2018 BDRip-AVC] MVO [СВ Студия] sokol_ok Скачать
47 | 0
Фильмы 2018 [DVDrip, WEB-DLRip, HDrip] (DUB, MVO) [ 1.47 GB ] Город лжи / City of Lies [2018 BDRip-AVC] MVO [СВ Студия] sokol_ok Скачать
22 | 0
Фильмы 2019-2020 [DVDrip, WEB-DLRip, HDrip] (DUB, MVO) [ 1.46 GB ] Город лжи / City of Lies [2019 биография BDRip] [MVO] killermax2013 Скачать
5 | 0
Фильмы [HD 720p, 1080p] (Хороший звук DUB, MVO) [ 10.55 GB ] Город лжи / City of Lies [2018 BDRip 1080p] MVO [СВ Студия] sheker187 Скачать
2 | 0

28-11-2019 20:33  

Отключить всю рекламу на сайте

    Дорогой пользователь! Огромная просьба, поблагодарите релизера, оцените раздачу и оставьте свои комментарий, если Вы скачали Город лжи через торрент бесплатно! Внесите свою лепту в развитие PiratBit!
    Комментировать посты могут только пользователи прошедшие не сложную регистрацию
    Показать сообщения:    

    Город лжи через торрент
    Скачать бесплатно Город лжи
    Город лжи скачать торрент
    Город лжи смотреть онлайн
    Cкачать фильм Город лжи бесплатно
    Город лжи скачать торрент в хорошем качестве
    Город лжи смотреть онлайн бесплатно в хорошем качестве


    Вы не можете начинать темы
    Вы не можете отвечать на сообщения
    Вы не можете редактировать свои сообщения
    Вы не можете удалять свои сообщения
    Вы не можете голосовать в опросах
    Вы не можете прикреплять файлы к сообщениям
    Вы можете скачивать файлы